<?xml version="1.0" standalone="no"?>
<!DOCTYPE svg PUBLIC "-//W3C//DTD SVG 1.1//EN" "http://www.w3.org/Graphics/SVG/1.1/DTD/svg11.dtd" >
<svg xmlns="http://www.w3.org/2000/svg" xmlns:xlink="http://www.w3.org/1999/xlink" version="1.1">
<metadata>
Created by FontForge 20201107 at Mon Oct 14 03:46:35 2002
 By Unknown
Copyright(c) Founder Corporation.2002
</metadata>
<defs>
<font id="FZXBSK--GBK1-0" horiz-adv-x="256" vert-adv-y="256" >
  <font-face 
    font-family="FZXiaoBiaoSong-B05"
    font-weight="400"
    font-stretch="normal"
    units-per-em="256"
    panose-1="3 0 5 9 0 0 0 0 0 0"
    ascent="204"
    descent="-52"
    x-height="118"
    cap-height="166"
    bbox="-13 -74 257 230.667"
    underline-thickness="12"
    underline-position="-68"
    unicode-range="U+0020-FFE5"
  />
<missing-glyph 
 />
    <glyph glyph-name=".notdef" 
 />
    <glyph glyph-name="space" unicode=" " horiz-adv-x="64" 
 />
    <glyph glyph-name="exclam" unicode="!" horiz-adv-x="85" 
d="M46 60h-7q-4 38 -13 68q-5 15 -5 24q1 24 21 25q22 0 22 -25q0 -9 -5 -24q-9 -29 -13 -68zM21 18q2 20 21 22q20 -2 22 -22q-1 -18 -22 -19q-20 1 -21 19z" />
    <glyph glyph-name="quotedbl" unicode="&#x22;" horiz-adv-x="142" 
d="M43 103h-10q-11 42 -12 55q1 18 17 19q15 -1 16 -19q0 -4 -8 -41q-2 -10 -3 -14zM110 103h-11q-1 4 -3 14q-8 38 -8 41q1 18 16 19q16 -1 17 -19q0 -4 -8 -41q-2 -10 -3 -14z" />
    <glyph glyph-name="numbersign" unicode="#" horiz-adv-x="128" 
d="M82 107h-29l-5 -35h29zM120 72l-1 -18h-25l-7 -54h-20l7 54h-28l-8 -54h-20l8 54h-25v18h27l5 35h-25l1 18h27l7 54h20l-7 -54h28l8 54h20l-8 -54h23v-18h-25l-5 -35h23z" />
    <glyph glyph-name="dollar" unicode="$" horiz-adv-x="128" 
d="M69 64v-56q24 3 24 28q2 17 -24 28zM110 123h-6q-10 37 -35 41v-55q54 -24 52 -58q1 -44 -52 -51v-23h-14v23q-18 0 -43 11v40l5 -1q11 -40 38 -42v64q-48 21 -48 55q2 40 48 45v20h14v-19q27 -4 41 -14v-36zM55 116v49q-23 -4 -23 -23q0 -18 23 -26z" />
    <glyph glyph-name="percent" unicode="%" 
d="M61 101q1 -14 13 -14q29 6 37 58q0 9 -8 12q-1 0 -4 3q-3 2 -4 2q-23 -9 -34 -61zM167 24q-1 -16 13 -16q28 7 36 55q-1 19 -14 19q-23 -4 -35 -58zM186 177l-100 -177h-15l89 156h-1q-14 -5 -28 -6q-7 0 -12 1q-5 -71 -55 -76q-30 3 -32 34q3 54 55 65q11 0 20 -6
q1 -1 2 -1q9 -8 24 -8q21 0 39 14q2 4 5 4h9zM137 30q6 56 56 65q32 0 32 -31q-9 -63 -54 -66q-32 2 -34 32z" />
    <glyph glyph-name="ampersand" unicode="&#x26;" horiz-adv-x="213" 
d="M148 107h52v-6q-14 0 -18 -10q-13 -23 -31 -46q18 -24 31 -23q8 0 14 9l5 -3q-10 -17 -11 -18q-11 -11 -29 -12q-21 0 -39 20q-29 -20 -57 -20q-47 2 -49 43q0 36 50 58q-14 22 -13 37q1 39 49 41q41 -1 43 -31q0 -24 -39 -38l39 -54q20 22 20 36q2 11 -17 11v6zM83 73
l-13 19q-20 -11 -19 -25q8 -46 42 -51q12 1 23 10q-9 11 -29 41q-3 4 -4 6zM83 153q1 -17 19 -37q18 5 18 21q-3 29 -24 31q-13 0 -13 -15z" />
    <glyph glyph-name="quotesingle" unicode="'" horiz-adv-x="71" 
d="M41 103h-11q-1 4 -3 14q-8 38 -8 41q1 18 17 19q15 -1 16 -19q0 -4 -8 -41q-2 -10 -3 -14z" />
    <glyph glyph-name="parenleft" unicode="(" horiz-adv-x="85" 
d="M78 178v-7q-22 -14 -29 -34q-8 -23 -8 -70q-2 -84 37 -101v-7q-63 35 -66 106q1 77 66 113z" />
    <glyph glyph-name="parenright" unicode=")" horiz-adv-x="85" 
d="M7 -41v7q40 17 38 102q2 85 -38 102v8q63 -35 66 -108q-1 -76 -66 -111z" />
    <glyph glyph-name="asterisk" unicode="*" horiz-adv-x="128" 
d="M71 122v-2q9 -5 25 -7q19 0 18 -13q-1 -11 -12 -12q-8 0 -14 8q-11 18 -20 20l-2 -1q1 -14 8 -26q3 -6 3 -10q-1 -13 -13 -14q-11 1 -12 14q0 6 4 13q6 9 6 23l-2 1q-11 -7 -19 -19q-7 -10 -14 -10q-11 1 -12 12q0 10 10 13q4 2 12 2q12 0 21 7v2q-10 5 -26 7
q-19 0 -18 13q0 11 12 12q10 0 16 -11q7 -13 18 -18l2 1q0 12 -7 24q-4 7 -4 13q1 12 13 13q12 0 13 -14q0 -6 -4 -13q-7 -10 -6 -23l2 -1q10 7 18 20q6 11 14 10q11 -1 13 -13q-1 -10 -10 -13q-4 -2 -11 -1q-12 0 -22 -7z" />
    <glyph glyph-name="plus" unicode="+" horiz-adv-x="145" 
d="M62 76v54h22v-54h53v-22h-53v-54h-22v54h-54v22h54z" />
    <glyph glyph-name="comma" unicode="," horiz-adv-x="64" 
d="M15 -44l-3 6q27 17 28 33q0 5 -5 5h-2h-4q-19 0 -19 19q1 20 21 21q24 -1 26 -30q0 -28 -40 -53q-1 -1 -2 -1z" />
    <glyph glyph-name="hyphen" unicode="-" horiz-adv-x="145" 
d="M137 54h-129v22h129v-22z" />
    <glyph glyph-name="period" unicode="." horiz-adv-x="64" 
d="M10 18q2 20 22 22q20 -2 22 -22q-1 -18 -22 -19q-21 1 -22 19z" />
    <glyph glyph-name="slash" unicode="/" horiz-adv-x="71" 
d="M77 177l-60 -180h-21l58 180h23z" />
    <glyph glyph-name="zero" unicode="0" horiz-adv-x="128" 
d="M81 57v58q1 56 -17 54q-18 1 -17 -54v-58q-1 -55 17 -53q11 0 14 14q3 19 3 39zM6 85q2 84 58 91q55 -8 58 -91q-4 -82 -58 -86q-54 5 -58 86z" />
    <glyph glyph-name="one" unicode="1" horiz-adv-x="128" 
d="M113 6v-6h-96v6q35 -2 31 26v98q1 18 -10 18q-5 0 -21 -6v6l64 28h5v-146q-4 -26 27 -24z" />
    <glyph glyph-name="two" unicode="2" horiz-adv-x="128" 
d="M122 54l-11 -54h-107v6q77 77 73 108q-3 32 -31 33q-20 -1 -31 -23h-7q19 52 56 52q47 -4 48 -48q1 -26 -30 -55l-41 -39h39q32 -3 36 20h6z" />
    <glyph glyph-name="three" unicode="3" horiz-adv-x="128" 
d="M15 134l-6 3q21 38 58 39q42 -1 43 -34q1 -23 -21 -33q30 -13 31 -46q-6 -61 -77 -65q-38 1 -39 22q1 12 16 14q11 0 26 -14q12 -11 19 -11q25 2 26 31q1 36 -52 51v4q33 10 33 34q-1 26 -27 26q-17 0 -30 -21z" />
    <glyph glyph-name="four" unicode="4" horiz-adv-x="128" 
d="M105 65h17v-28h-17v-37h-37v37h-63v29q25 39 80 110h20v-111zM69 65v76h-1l-53 -76h54z" />
    <glyph glyph-name="five" unicode="5" horiz-adv-x="128" 
d="M38 141l-5 -21q37 -1 56 -13q25 -16 26 -47q-4 -58 -73 -60q-34 0 -36 20q1 16 16 16q9 0 25 -11q15 -11 23 -11q24 2 25 26q-1 23 -27 34q-15 7 -47 10q-5 1 -8 1l25 88h82l-11 -32h-71z" />
    <glyph glyph-name="six" unicode="6" horiz-adv-x="128" 
d="M83 40q1 59 -22 56q-9 0 -11 -3q-2 -6 -3 -23q-2 -71 20 -66q18 -2 16 36zM120 176v-7q-55 -10 -68 -66q9 5 23 5q46 -3 47 -54q-7 -54 -56 -55q-58 2 -59 74q8 88 113 103z" />
    <glyph glyph-name="seven" unicode="7" horiz-adv-x="128" 
d="M122 173l-60 -173h-24l51 138h-53q-20 1 -25 -22h-7l12 57h106z" />
    <glyph glyph-name="eight" unicode="8" horiz-adv-x="128" 
d="M38 40q2 -33 24 -35q23 0 23 30q1 23 -34 43q0 -1 -1 -2q-13 -17 -12 -36zM43 148q1 -23 33 -40q12 13 11 29q0 32 -23 32q-19 -1 -21 -21zM68 176q46 -1 49 -37q0 -25 -35 -36q39 -23 39 -54q-2 -49 -60 -50q-52 2 -54 41q0 33 39 43q-36 20 -36 48q3 44 58 45z" />
    <glyph glyph-name="nine" unicode="9" horiz-adv-x="128" 
d="M8 -1v4q52 9 69 67q-6 -3 -12 -4q-4 -1 -12 -1q-45 3 -46 54q6 55 55 57q58 -3 59 -76q-8 -90 -113 -101zM46 133q-1 -59 21 -56q10 0 12 3q0 2 1 9q1 11 1 14q2 71 -20 66q-17 2 -15 -36z" />
    <glyph glyph-name="colon" unicode=":" horiz-adv-x="85" 
d="M21 99q2 20 21 22q20 -2 22 -22q-1 -20 -22 -21q-19 2 -21 21zM21 18q2 20 21 22q20 -2 22 -22q-1 -18 -22 -19q-20 1 -21 19z" />
    <glyph glyph-name="semicolon" unicode=";" horiz-adv-x="85" 
d="M21 99q2 20 21 22q20 -2 22 -22q-1 -20 -22 -21q-19 2 -21 21zM26 -44l-3 6q27 17 28 33q0 5 -5 5h-6q-19 0 -19 19q1 20 21 21q24 -1 26 -30q0 -28 -40 -53q-1 -1 -2 -1z" />
    <glyph glyph-name="less" unicode="&#x3c;" horiz-adv-x="145" 
d="M138 20v-20l-130 55v19l130 58v-23l-101 -44z" />
    <glyph glyph-name="equal" unicode="=" horiz-adv-x="145" 
d="M137 102v-22h-129v22h129zM137 50v-23h-129v23h129z" />
    <glyph glyph-name="greater" unicode="&#x3e;" horiz-adv-x="145" 
d="M8 20l101 45l-101 44v23l130 -58v-19l-130 -55v20z" />
    <glyph glyph-name="question" unicode="?" horiz-adv-x="128" 
d="M65 59h-8v11q0 10 8 26q11 20 11 38q-1 33 -22 33q-15 -1 -15 -10q0 -4 4 -8q5 -6 5 -13q0 -15 -15 -16q-17 0 -18 20q4 35 49 36q49 -3 50 -43q0 -22 -24 -37q-1 -1 -3 -2q-18 -10 -20 -16q-2 -5 -2 -19zM39 18q2 20 22 22q20 -2 22 -22q-1 -18 -22 -19q-21 1 -22 19z
" />
    <glyph glyph-name="at" unicode="@" horiz-adv-x="238" 
d="M152 119l3 11h18l-17 -67v-1q-1 -16 10 -16q28 4 32 53q-9 63 -74 68q-70 -5 -73 -88q7 -67 75 -72q25 -1 53 12l3 -9q-30 -13 -55 -13q-88 3 -99 85q6 88 96 95q80 -6 86 -78q-6 -58 -48 -62q-19 1 -24 18h-1q-12 -16 -30 -18q-25 1 -25 32q9 60 52 64q13 1 18 -14z
M148 104q0 17 -12 17q-32 -9 -35 -50q0 -21 16 -22q24 4 31 55z" />
    <glyph glyph-name="A" unicode="A" horiz-adv-x="184" 
d="M48 60h50l-26 63zM176 6v-6h-83v6h3q20 1 18 10q-1 10 -12 34h-57q-13 -28 -12 -33q0 -8 20 -11h1v-6h-52v6q16 0 25 30l57 141h7l57 -135q16 -41 28 -36z" />
    <glyph glyph-name="B" unicode="B" horiz-adv-x="170" 
d="M68 88v-64q-1 -17 15 -16q31 0 31 39q0 40 -39 41h-7zM68 153v-58q44 -3 40 37q0 33 -27 33q-14 0 -13 -12zM4 0v6q25 1 23 19v123q1 19 -23 19v6h79q66 -1 67 -41q0 -29 -40 -38v-1q47 -8 48 -45q-3 -46 -71 -48h-83z" />
    <glyph glyph-name="C" unicode="C" horiz-adv-x="184" 
d="M168 39l8 -6q-31 -37 -72 -36q-85 3 -91 88q6 86 90 92q15 0 38 -9q10 -4 12 -4q7 0 11 12h7v-60h-6q-23 50 -60 52q-47 0 -47 -82q0 -38 11 -56q13 -21 39 -23q32 -1 60 32z" />
    <glyph glyph-name="D" unicode="D" horiz-adv-x="184" 
d="M66 152v-128q-1 -16 15 -15q52 -1 51 78q-3 76 -50 77q-18 0 -16 -12zM4 0v6q21 0 21 17v127q1 16 -21 17v6h78q91 -2 95 -84q-3 -84 -93 -89h-80z" />
    <glyph glyph-name="E" unicode="E" horiz-adv-x="170" 
d="M4 167v6h148v-51h-7q-3 45 -58 42q-21 2 -19 -12v-59q39 -3 42 38h6v-86h-6q-3 42 -42 39v-62q-2 -15 22 -14q48 -1 67 45h7l-10 -53h-150v6q25 1 23 19v123q1 19 -23 19z" />
    <glyph glyph-name="F" unicode="F" horiz-adv-x="156" 
d="M4 167v6h145v-51h-6q-5 45 -56 42q-21 2 -19 -12v-59q36 -3 39 38h7v-86h-7q-2 41 -39 39v-59q-2 -20 28 -19v-6h-92v6q25 1 23 19v123q1 19 -23 19z" />
    <glyph glyph-name="G" unicode="G" horiz-adv-x="199" 
d="M193 73v-6q-25 1 -22 -23v-33q-22 -12 -69 -14q-87 3 -93 88q7 86 91 92q15 0 38 -9q10 -4 12 -4q7 0 11 12h7v-60h-6q-23 50 -60 52q-47 0 -47 -82q0 -81 50 -82q28 -1 26 18v27q3 20 -26 18v6h88z" />
    <glyph glyph-name="H" unicode="H" horiz-adv-x="199" 
d="M194 6v-6h-87v6q25 1 23 19v58h-61v-58q-2 -18 23 -19v-6h-87v6q24 1 22 19v123q1 19 -22 19v6h87v-6q-24 0 -23 -19v-53h61v53q1 19 -23 19v6h87v-6q-23 0 -22 -19v-123q-2 -18 22 -19z" />
    <glyph glyph-name="I" unicode="I" horiz-adv-x="99" 
d="M95 6v-6h-90v6q26 1 24 19v123q1 19 -24 19v6h90v-6h-2q-24 0 -23 -19v-123q-1 -19 25 -19z" />
    <glyph glyph-name="J" unicode="J" horiz-adv-x="128" 
d="M123 173v-6q-25 2 -23 -24v-112q0 -53 -56 -54q-37 1 -43 31q1 18 18 20q17 -2 18 -20q0 -5 -4 -8q-3 -3 -3 -6q1 -8 12 -8q17 0 16 20v142q2 20 -25 19v6h90z" />
    <glyph glyph-name="K" unicode="K" horiz-adv-x="199" 
d="M197 6v-6h-86v6q22 1 20 6q0 4 -6 11l-47 58l-7 -6v-50q-2 -18 23 -19v-6h-86v6q24 1 22 19v123q1 19 -22 19v6h86v-6q-25 1 -23 -24v-55l56 56q10 9 9 14q3 8 -22 9v6h74v-6q-25 5 -82 -58l78 -97q3 -4 11 -6h2z" />
    <glyph glyph-name="L" unicode="L" horiz-adv-x="170" 
d="M163 58l-10 -58h-148v6q24 1 22 19v123q1 19 -22 19v6h89v-6q-29 3 -26 -24v-121q-2 -16 23 -14q47 -2 65 50h7z" />
    <glyph glyph-name="M" unicode="M" horiz-adv-x="241" 
d="M236 6v-6h-85v6q25 0 23 20v129h-1l-64 -155h-7l-64 151v-119q-3 -26 25 -26v-6h-59v6q26 0 23 21v121q2 18 -23 19v6h65l51 -121l51 121h65v-6q-25 2 -23 -24v-113q-3 -24 23 -24z" />
    <glyph glyph-name="N" unicode="N" horiz-adv-x="184" 
d="M4 0v6q25 1 23 21v121q-17 20 -22 19v6h54l89 -109v77q2 25 -24 26v6h55v-6q-22 -2 -20 -21v-149h-7l-114 137v-102q-2 -26 24 -26v-6h-58z" />
    <glyph glyph-name="O" unicode="O" horiz-adv-x="199" 
d="M100 168q-44 -2 -46 -82q0 -81 46 -82q45 1 45 82q-2 80 -45 82zM100 177q85 -6 90 -91q-5 -85 -90 -89q-86 4 -91 89q5 85 91 91z" />
    <glyph glyph-name="P" unicode="P" horiz-adv-x="156" 
d="M4 0v6q11 2 14 4h1q7 4 7 20v113q2 25 -22 24v6h83q66 -1 67 -47q-1 -25 -24 -39q-10 -6 -23 -8q-9 -1 -40 -1v-48q-3 -24 23 -24v-6h-86zM67 155v-68q46 -5 43 38q1 40 -31 39q-12 0 -12 -9z" />
    <glyph glyph-name="Q" unicode="Q" horiz-adv-x="199" 
d="M100 168q-44 -2 -46 -82q0 -81 46 -82q45 1 45 82q-2 80 -45 82zM187 -28l1 -6q-23 -10 -47 -9q-53 3 -71 43q-57 20 -61 83q5 88 91 94q85 -6 90 -91q-3 -70 -65 -86q14 -30 45 -31q4 0 13 2q3 1 4 1z" />
    <glyph glyph-name="R" unicode="R" horiz-adv-x="184" 
d="M71 154v-66q51 -3 47 39q0 37 -31 37q-18 2 -16 -10zM183 6v-6h-52l-53 80h-7v-50q-3 -24 22 -24v-6h-86v6q25 -1 22 24v113q2 26 -22 24v6h82q71 -1 72 -45q1 -32 -40 -44l52 -73q5 -5 10 -5z" />
    <glyph glyph-name="S" unicode="S" horiz-adv-x="142" 
d="M124 122h-7q-15 46 -50 47q-27 -2 -28 -24q-3 -18 27 -31l37 -18q28 -16 28 -47q-4 -50 -63 -52q-15 0 -33 5q-8 2 -11 2q-6 0 -8 -7h-7v61h7q13 -54 53 -54q30 1 32 28q1 20 -29 31l-17 9q-46 22 -44 54q3 50 57 51q12 0 29 -6q8 -3 11 -3q7 0 8 9h8v-55z" />
    <glyph glyph-name="T" unicode="T" horiz-adv-x="170" 
d="M131 6v-6h-91v6q28 -2 25 24v135q-45 1 -50 -43h-7l1 51h153l1 -51h-8q-4 44 -49 43v-135q-3 -26 25 -24z" />
    <glyph glyph-name="U" unicode="U" horiz-adv-x="184" 
d="M179 173v-6q-22 -1 -20 -22v-82q-1 -35 -14 -49q-17 -16 -50 -17q-34 0 -52 14q-19 14 -18 47v85q2 25 -21 24v6h87v-6q-28 3 -25 -24v-85q-1 -50 37 -50q47 0 45 55v78q2 26 -25 26v6h56z" />
    <glyph glyph-name="V" unicode="V" horiz-adv-x="184" 
d="M179 173v-6q-16 0 -23 -21l-58 -149h-7l-65 152q-7 18 -22 18v6h86v-6q-25 0 -22 -11q0 -6 8 -22l33 -81l33 84q0 1 1 4q4 10 4 14q2 12 -22 12v6h54z" />
    <glyph glyph-name="W" unicode="W" 
d="M251 173v-6q-12 -1 -18 -17l-51 -152h-7l-43 118h-1l-47 -118h-7l-54 152q-5 17 -18 17v6h75v-6q-17 -1 -16 -11q0 -4 2 -9l30 -92h1l29 78l-8 25q-5 8 -19 9v6h80v-6h-2q-17 0 -16 -10q0 -2 2 -8q1 -4 1 -6l27 -85h1l28 87q2 3 2 10q0 10 -15 12h-2v6h46z" />
    <glyph glyph-name="X" unicode="X" horiz-adv-x="184" 
d="M176 173v-6q-20 10 -68 -66l46 -73q15 -24 25 -22v-6h-87v6q21 1 20 9q-1 7 -5 13l-26 41l-10 -13q-27 -35 -24 -39q-1 -10 21 -11v-6h-64v6h2q16 3 25 15l45 56l-51 75q-9 15 -21 15v6h89v-6q-23 0 -20 -9q-1 -5 4 -9l24 -39q38 50 30 48q0 7 -16 9h-3v6h64z" />
    <glyph glyph-name="Y" unicode="Y" horiz-adv-x="184" 
d="M179 173v-6h-1q-11 -2 -16 -10l-49 -80v-47q-3 -25 23 -24v-6h-89v6q27 -1 24 24v38l-47 85q-7 13 -20 14v6h86v-6q-24 1 -21 -9q0 -3 4 -11q2 -2 2 -3l31 -60l28 48q9 13 10 23q1 11 -21 12v6h56z" />
    <glyph glyph-name="Z" unicode="Z" horiz-adv-x="170" 
d="M162 62l-6 -62h-149v4l98 160q-34 -1 -39 -1q-7 -1 -13 -3q-18 -6 -30 -38q-1 -1 -1 -2h-7l5 53h135v-4l-97 -160q54 -2 69 8q20 10 29 45h6z" />
    <glyph glyph-name="bracketleft" unicode="[" horiz-adv-x="85" 
d="M77 174v-9h-16q-19 2 -17 -18v-161q-2 -15 13 -14h20v-8h-60v210h60z" />
    <glyph glyph-name="backslash" unicode="\" horiz-adv-x="71" 
d="M54 -3l-58 180h21l61 -180h-24z" />
    <glyph glyph-name="bracketright" unicode="]" horiz-adv-x="85" 
d="M8 -36v8h21q14 -1 12 14v161q3 20 -17 18h-16v9h60v-210h-60z" />
    <glyph glyph-name="asciicircum" unicode="^" horiz-adv-x="85" 
d="M71 135l-29 25l-28 -25h-14l31 45h23l32 -45h-15z" />
    <glyph glyph-name="underscore" unicode="_" horiz-adv-x="128" 
d="M128 -30h-128v13h128v-13z" />
    <glyph glyph-name="grave" unicode="`" horiz-adv-x="85" 
d="M63 135h-14l-37 23q-11 6 -10 13q1 12 13 12q7 0 13 -8z" />
    <glyph glyph-name="a" unicode="a" horiz-adv-x="128" 
d="M75 26v37q-31 -9 -31 -31q1 -16 13 -17q8 0 16 9zM121 16l4 -5q-12 -13 -28 -13q-19 0 -22 16q-17 -15 -40 -16q-28 2 -29 26q-3 29 69 48v18q1 24 -22 23q-13 -1 -15 -9q0 -3 3 -7q4 -5 4 -11q-2 -13 -17 -14q-17 0 -17 17q3 30 48 32q50 -1 51 -35v-67q0 -6 6 -6
q2 0 3 1z" />
    <glyph glyph-name="b" unicode="b" horiz-adv-x="142" 
d="M54 92v-67q1 -20 17 -20q26 -1 25 53q-1 48 -24 49q-13 0 -18 -15zM4 167v6h50v-66q13 14 31 14q45 -3 48 -59q-3 -62 -59 -64q-17 0 -32 13l-20 -12h-4v153q2 14 -14 15z" />
    <glyph glyph-name="c" unicode="c" horiz-adv-x="113" 
d="M105 28l5 -5q-20 -25 -49 -25q-51 3 -55 57q2 61 61 66q37 -2 39 -28q0 -15 -17 -16q-16 -1 -14 26q0 9 -11 10q-21 -1 -22 -43q2 -53 36 -56q16 -1 27 14z" />
    <glyph glyph-name="d" unicode="d" horiz-adv-x="142" 
d="M86 29v62q-7 16 -20 16q-22 0 -22 -48q-1 -48 21 -48q14 1 21 18zM137 11v-6q-6 -1 -15 -2q-23 -2 -35 -4v14q-15 -16 -36 -15q-42 5 -45 57q2 61 50 66q17 0 30 -16v47q2 16 -19 15v6h55v-147q-2 -14 15 -15z" />
    <glyph glyph-name="e" unicode="e" horiz-adv-x="113" 
d="M42 72h34q0 21 -2 29q-4 12 -14 12q-18 2 -18 -41zM103 32l6 -4q-21 -31 -51 -30q-50 3 -52 61q3 58 53 62q46 0 49 -58h-65q2 -48 31 -48q16 0 29 17z" />
    <glyph glyph-name="f" unicode="f" horiz-adv-x="85" 
d="M4 0v6q15 0 14 16v85h-14v11h14q-4 60 47 59q33 -3 35 -26q-1 -15 -17 -16q-13 1 -15 14q0 4 4 10q2 3 2 5q0 5 -8 5q-13 0 -12 -20v-31h22v-11h-22v-81q-3 -22 21 -20v-6h-71z" />
    <glyph glyph-name="g" unicode="g" horiz-adv-x="128" 
d="M45 80q-1 -34 16 -33q19 -1 17 33q1 33 -17 33q-17 1 -16 -33zM123 102h-20l1 -2q9 -10 9 -23q-1 -26 -27 -35q-2 -4 -32 -3q-14 -2 -15 -12q-3 -10 26 -10h17q41 -1 42 -29q0 -39 -66 -39q-49 1 -51 24q1 15 24 19q-21 6 -20 20q1 19 30 29q-31 12 -32 39q4 39 53 41
q16 0 28 -6h33v-13zM83 -11h-44q-10 -8 -9 -15q1 -16 31 -17q42 0 42 19q0 13 -20 13z" />
    <glyph glyph-name="h" unicode="h" horiz-adv-x="142" 
d="M137 6v-6h-60v6q12 1 12 15v62q0 21 -15 21q-12 -1 -21 -15v-68q0 -14 13 -15v-6h-62v6q15 1 14 16v130q2 14 -14 15v6h49v-72q19 21 37 20q33 -2 34 -36v-63q-1 -16 13 -16z" />
    <glyph glyph-name="i" unicode="i" horiz-adv-x="71" 
d="M65 6v-6h-61v6q15 1 14 16v75q1 13 -14 15v6h49v-97q-1 -14 12 -15zM15 157q2 18 20 20q18 -2 20 -20q-2 -18 -20 -20q-18 2 -20 20z" />
    <glyph glyph-name="j" unicode="j" horiz-adv-x="85" 
d="M67 118v-117q0 -51 -48 -51q-31 2 -32 26q2 14 14 15q14 -1 15 -14q0 -3 -3 -9q-3 -4 -3 -6q0 -4 9 -4q12 0 12 19v120q0 13 -15 15h-1v6h52zM28 157q2 19 19 20q18 -2 20 -20q-2 -18 -20 -20q-17 1 -19 20z" />
    <glyph glyph-name="k" unicode="k" horiz-adv-x="142" 
d="M131 118v-6q-15 -2 -22 -9q-12 -9 -26 -24l50 -69q2 -4 6 -4v-6h-60v6q11 0 11 5q0 4 -6 12l-25 34l-5 -6v-29q-2 -16 13 -16v-6h-61v6q12 0 12 16v130q0 15 -12 15v6h48v-110l32 32q5 6 6 10q0 5 -12 7h-3v6h54z" />
    <glyph glyph-name="l" unicode="l" horiz-adv-x="71" 
d="M65 6v-6h-61v6q12 0 13 16v130q0 15 -13 15v6h49v-151q0 -16 12 -16z" />
    <glyph glyph-name="m" unicode="m" horiz-adv-x="213" 
d="M208 6v-6h-61v6q14 1 13 15v62q1 21 -14 21q-13 -1 -21 -15v-68q-1 -14 12 -15v-6h-60v6q13 1 12 15v62q1 21 -14 21q-13 -1 -21 -15v-68q-1 -14 12 -15v-6h-62v6q15 1 14 16v75q1 15 -14 15v6h49v-18h1q12 21 36 21q25 0 33 -22q17 23 38 22q34 -2 35 -36v-64
q-1 -15 12 -15z" />
    <glyph glyph-name="n" unicode="n" horiz-adv-x="142" 
d="M138 6v-6h-60v6q12 1 12 15v62q1 21 -14 21q-12 -1 -21 -15v-68q-1 -14 12 -15v-6h-62v6q16 1 14 16v75q2 14 -14 15v6h49v-18h1q12 21 36 21q33 -2 34 -36v-64q-1 -14 13 -15z" />
    <glyph glyph-name="o" unicode="o" horiz-adv-x="128" 
d="M44 59q-2 -57 21 -55q21 -3 19 55q2 58 -20 54q-22 2 -20 -54zM6 59q5 58 58 62q54 -4 58 -62q-4 -58 -58 -61q-54 3 -58 61z" />
    <glyph glyph-name="p" unicode="p" horiz-adv-x="142" 
d="M55 89v-63q6 -15 19 -15q22 0 22 46q1 50 -20 49q-13 -1 -21 -17zM75 -45v-5h-70v6q16 0 14 15v126q1 13 -14 15v6h49v-17h1q9 20 32 20q45 -5 47 -59q-2 -60 -49 -63q-17 0 -30 13v-34q-1 -25 20 -23z" />
    <glyph glyph-name="q" unicode="q" horiz-adv-x="142" 
d="M88 25v67q-1 20 -18 21q-24 0 -24 -52q0 -51 24 -51q13 0 18 15zM137 -44v-6h-68v6q21 0 19 21v34q-14 -13 -31 -13q-47 2 -48 61q5 59 58 62q17 0 32 -15l20 15h4v-150q-1 -15 14 -15z" />
    <glyph glyph-name="r" unicode="r" horiz-adv-x="113" 
d="M76 6v-6h-69v6q15 1 14 16v75q1 15 -14 15v6h49v-20q16 23 34 23q19 -1 21 -20q-1 -17 -16 -17q-9 0 -15 9q-5 6 -8 6q-14 -4 -15 -24v-49q-2 -21 19 -20z" />
    <glyph glyph-name="s" unicode="s" horiz-adv-x="99" 
d="M87 83h-6q-10 29 -32 30q-15 -1 -16 -15q0 -11 24 -23q35 -15 35 -39q-2 -36 -40 -38q-9 0 -27 5q-4 1 -5 1q-4 0 -7 -5h-7v40h8q7 -33 36 -34q16 1 18 17q0 11 -25 22q-36 17 -36 39q2 36 41 38q7 0 19 -4q6 -2 8 -2q6 0 6 6h6v-38z" />
    <glyph glyph-name="t" unicode="t" horiz-adv-x="85" 
d="M78 118v-11h-24v-77q0 -15 10 -15q8 0 15 13l6 -2q-12 -27 -38 -27q-25 0 -29 24v1v83h-13v7q21 15 43 47h6v-43h24z" />
    <glyph glyph-name="u" unicode="u" horiz-adv-x="142" 
d="M137 11v-6q-4 0 -10 -1q-28 -2 -39 -5v14l-2 -2q-18 -13 -35 -13q-33 0 -34 34v65q2 14 -13 15v6h48v-87q-1 -18 15 -18q10 0 21 11v73q0 13 -14 15h-2v6h51v-92q-1 -16 14 -15z" />
    <glyph glyph-name="v" unicode="v" horiz-adv-x="128" 
d="M124 118v-6h-1q-9 0 -14 -14l-41 -100h-6l-31 74q-13 29 -15 33q-2 7 -11 7v6h64v-6h-2q-12 -1 -11 -7q0 -1 2 -8l20 -52l19 47q3 6 3 11q0 10 -14 9v6h38z" />
    <glyph glyph-name="w" unicode="w" horiz-adv-x="184" 
d="M181 118v-6q-8 0 -13 -13l-39 -101h-6l-26 76h-1l-31 -76h-7l-38 94q-6 22 -14 20v6h57v-6h-2q-8 -1 -8 -8q0 -3 8 -24t13 -35l18 44q-2 6 -4 13q-1 3 -1 4q-3 5 -10 6h-2v6h60v-6h-2q-10 -1 -10 -7q0 -2 6 -22q7 -26 9 -36h1q2 6 8 20q12 32 12 35q0 8 -12 10h-1v6h35z
" />
    <glyph glyph-name="x" unicode="x" horiz-adv-x="128" 
d="M124 6v-6h-62v6q12 0 12 6q0 2 -5 10q-1 2 -4 5q-6 9 -10 17q-21 -25 -21 -31q0 -8 13 -7v-6h-43v6q6 -8 45 45l-33 51q-5 10 -13 10v6h64v-6q-12 0 -12 -5q2 -9 18 -29q24 29 19 27q2 7 -13 7v6h43v-6q-10 -1 -18 -10l-26 -32l38 -59q4 -4 8 -5z" />
    <glyph glyph-name="y" unicode="y" horiz-adv-x="128" 
d="M123 118v-6h-1q-9 0 -14 -14l-38 -100q-12 -32 -18 -39q-8 -9 -24 -9q-22 1 -24 19q1 17 17 17q14 0 14 -13v-5q1 -4 4 -4q10 0 17 21l4 14l-30 73q-3 8 -10 22q-5 10 -5 11q-3 6 -10 7h-1v6h64v-6h-2q-12 -1 -11 -7q0 -5 5 -15l18 -47l17 49q3 6 3 11q1 10 -14 9v6h39z
" />
    <glyph glyph-name="z" unicode="z" horiz-adv-x="113" 
d="M108 41l-5 -41h-98v6l60 104q-45 5 -49 -28h-6l2 36h94v-7l-59 -103q22 0 30 3q17 7 23 30h8z" />
    <glyph glyph-name="braceleft" unicode="{" horiz-adv-x="100" 
d="M33 -7v44q2 25 -27 30q29 5 27 30v45q-3 40 54 37v-3q-28 -4 -27 -32v-44q3 -28 -29 -33q32 -5 29 -33v-42q-1 -28 27 -32v-3q-57 -3 -54 36z" />
    <glyph glyph-name="bar" unicode="|" horiz-adv-x="56" 
d="M17 -3v180h22v-180h-22z" />
    <glyph glyph-name="braceright" unicode="}" horiz-adv-x="100" 
d="M14 -43v3q28 4 27 32v42q-3 28 29 33q-32 5 -29 33v44q1 28 -27 32v3q57 3 54 -36v-46q-2 -25 27 -30q-29 -5 -27 -30v-43q3 -40 -54 -37z" />
    <glyph glyph-name="asciitilde" unicode="~" horiz-adv-x="133" 
d="M116 85l10 -18q-1 -1 -2 -3q-14 -20 -30 -19q-12 0 -26 9q-1 1 -4 2q-15 7 -26 7q-13 0 -21 -19l-10 18q12 22 32 22q9 0 29 -8q1 -1 4 -2q16 -7 22 -7q12 0 22 18z" />
    <glyph glyph-name="currency" unicode="&#xa4;" 
d="M161 87q-3 30 -33 33q-30 -3 -33 -33q3 -32 33 -35q30 3 33 35zM57 30l25 26q-9 13 -9 31q0 16 9 31l-25 25l15 14l25 -25q13 9 31 9q19 0 31 -9l25 25l15 -14l-25 -25q9 -15 9 -31q0 -18 -9 -31l25 -26l-15 -14l-25 25q-12 -9 -31 -10q-18 1 -31 10l-25 -25z" />
    <glyph glyph-name="section" unicode="&#xa7;" 
d="M98 86q-3 -11 23 -31q14 -12 23 -12q13 1 14 15q2 7 -11 19q-23 23 -35 23q-14 -1 -14 -14zM136 8l-14 12q-29 23 -35 31q-8 10 -8 23q0 34 35 32v1q-1 1 -4 3q-22 19 -21 33q2 32 37 34q33 -1 39 -25q-1 -14 -17 -17q-13 2 -15 15q0 5 6 11q4 3 4 5q-2 5 -15 5
q-19 -2 -20 -18q0 -10 27 -30q42 -32 42 -56q0 -31 -35 -30v-1q25 -15 25 -36q-3 -30 -42 -32q-36 3 -38 26q2 13 16 14q15 -1 17 -12q0 -6 -9 -11q-3 -2 -3 -3q2 -8 18 -8q20 0 20 18q0 9 -10 16z" />
    <glyph glyph-name="dieresis" unicode="&#xa8;" 
d="M85 154q2 16 16 17q14 -1 16 -17q-2 -16 -16 -17q-14 1 -16 17zM138 154q2 16 16 17q15 -2 17 -17q-1 -16 -17 -17q-14 1 -16 17z" />
    <glyph glyph-name="degree" unicode="&#xb0;" 
d="M51 112q24 2 26 28q-2 25 -26 27q-23 -3 -26 -27q3 -25 26 -28zM51 103q-33 3 -36 37q3 33 36 36q34 -3 37 -36q-3 -34 -37 -37z" />
    <glyph glyph-name="plusminus" unicode="&#xb1;" 
d="M117 92v38h22v-38h54v-23h-54v-36h-22v36h-54v23h54zM63 0v23h130v-23h-130z" />
    <glyph glyph-name="periodcentered" unicode="&#xb7;" 
d="M154 92v-2q-2 -22 -25 -24h-1q-24 1 -25 24v1q2 24 25 26h1q23 -2 25 -25z" />
    <glyph glyph-name="multiply" unicode="&#xd7;" 
d="M112 65l-45 45l16 15l45 -45l45 45l16 -15l-45 -45l45 -45l-16 -16l-45 45l-45 -45l-16 16z" />
    <glyph glyph-name="agrave" unicode="&#xe0;" 
d="M142 29v62q-7 16 -20 16q-22 0 -22 -48q-1 -48 21 -48q13 1 21 18zM153 135h-14l-37 23q-11 6 -10 13q1 12 13 12q7 0 13 -8zM191 17l3 -4q-9 -15 -28 -15q-20 1 -24 15q-13 -16 -35 -15q-42 5 -45 57q2 61 49 66q15 0 30 -15l1 -1v15h35v-94q0 -13 3 -15t11 6z" />
    <glyph glyph-name="aacute" unicode="&#xe1;" 
d="M142 29v62q-7 16 -20 16q-22 0 -22 -48q-1 -48 21 -48q13 1 21 18zM191 17l3 -4q-9 -15 -28 -15q-20 1 -24 15q-13 -16 -35 -15q-42 5 -45 57q2 61 49 66q15 0 30 -15l1 -1v15h35v-94q0 -13 3 -15t11 6zM103 160l37 23q4 2 8 -2q3 -3 -1 -7l-28 -32q-7 -7 -13 -7
q-13 1 -13 11q0 7 9 13z" />
    <glyph glyph-name="egrave" unicode="&#xe8;" 
d="M112 72h34q0 21 -2 29q-2 12 -14 12q-18 2 -18 -41zM173 32l6 -4q-20 -31 -50 -30q-50 2 -52 61q3 58 52 62q46 0 49 -58h-65q2 -48 31 -48q16 0 29 17zM149 135h-14l-37 23q-11 6 -10 13q1 12 13 12q7 0 13 -8z" />
    <glyph glyph-name="eacute" unicode="&#xe9;" 
d="M112 72h34q0 21 -2 29q-2 12 -14 12q-18 2 -18 -41zM173 32l6 -4q-20 -31 -50 -30q-50 2 -52 61q3 58 52 62q46 0 49 -58h-65q2 -48 31 -48q16 0 29 17zM121 160l36 23q4 2 8 -2q3 -3 -1 -7l-28 -31q-7 -8 -13 -8q-13 0 -13 12q-1 7 11 13z" />
    <glyph glyph-name="ecircumflex" unicode="&#xea;" 
d="M112 72h34q0 21 -2 29q-2 12 -14 12q-18 2 -18 -41zM173 32l6 -4q-20 -31 -50 -30q-50 2 -52 61q3 58 52 62q46 0 49 -58h-65q2 -48 31 -48q16 0 29 17zM157 135l-28 25l-29 -25h-14l31 45h23l32 -45h-15z" />
    <glyph glyph-name="igrave" unicode="&#xec;" 
d="M164 6v-6h-61v6q14 1 13 16v75q1 13 -13 15v6h49v-97q-1 -14 12 -15zM153 135h-15l-36 23q-11 6 -10 13q1 12 12 12q8 0 14 -8z" />
    <glyph glyph-name="iacute" unicode="&#xed;" 
d="M156 6v-6h-61v6q15 1 14 16v75q1 13 -14 15v6h49v-97q-1 -14 12 -15zM115 161l37 23q4 2 8 -2q3 -3 -1 -7l-28 -31q-7 -8 -13 -8q-13 0 -13 12q0 6 9 12z" />
    <glyph glyph-name="ograve" unicode="&#xf2;" 
d="M108 59q-2 -57 20 -55q22 -3 20 55q2 58 -20 54q-22 2 -20 -54zM70 59q4 58 58 62q54 -4 58 -62q-4 -58 -58 -61q-54 2 -58 61zM148 135h-14l-36 23q-12 6 -11 13q1 12 13 12q7 0 13 -8z" />
    <glyph glyph-name="oacute" unicode="&#xf3;" 
d="M108 59q-2 -57 20 -55q22 -3 20 55q2 58 -20 54q-22 2 -20 -54zM70 59q4 58 58 62q54 -4 58 -62q-4 -58 -58 -61q-54 2 -58 61zM119 160l37 23q4 2 8 -2q2 -3 -1 -7l-28 -31q-7 -8 -13 -8q-13 0 -13 12q0 6 9 12z" />
    <glyph glyph-name="divide" unicode="&#xf7;" 
d="M109 12q2 17 19 19q18 -2 20 -19q-2 -15 -19 -18q-19 2 -20 18zM109 118q2 17 19 19q18 -2 20 -19q-2 -17 -19 -20q-18 2 -20 20zM193 54h-130v22h130v-22z" />
    <glyph glyph-name="ugrave" unicode="&#xf9;" 
d="M195 11v-6q-4 0 -10 -1q-29 -2 -40 -5v14q-1 -1 -3 -2q-17 -13 -33 -13q-34 0 -35 34v65q2 14 -13 15v6h48v-87q0 -18 15 -18q10 0 21 11v73q0 13 -14 15h-2v6h51v-92q-1 -16 15 -15zM147 135h-14l-37 23q-11 6 -10 13q1 12 13 12q7 0 13 -8z" />
    <glyph glyph-name="uacute" unicode="&#xfa;" 
d="M195 11v-6q-4 0 -10 -1q-29 -2 -40 -5v14q-1 -1 -3 -2q-17 -13 -33 -13q-34 0 -35 34v65q2 14 -13 15v6h48v-87q0 -18 15 -18q10 0 21 11v73q0 13 -14 15h-2v6h51v-92q-1 -16 15 -15zM119 160l36 23q4 2 8 -2q3 -3 -1 -7l-28 -31q-7 -8 -13 -8q-13 0 -13 12q-1 7 11 13z
" />
    <glyph glyph-name="udieresis" unicode="&#xfc;" 
d="M195 11v-6q-4 0 -10 -1q-29 -2 -40 -5v14q-1 -1 -3 -2q-17 -13 -33 -13q-34 0 -35 34v65q2 14 -13 15v6h48v-87q0 -18 15 -18q10 0 21 11v73q0 13 -14 15h-2v6h51v-92q-1 -16 15 -15zM83 154q2 16 17 17q14 -1 16 -17q-2 -16 -16 -17q-14 1 -17 17zM137 154q2 16 16 17
q15 -2 17 -17q-1 -16 -17 -17q-14 1 -16 17z" />
    <glyph glyph-name="amacron" unicode="&#x101;" 
d="M142 29v62q-7 16 -20 16q-22 0 -22 -48q-1 -48 21 -48q13 1 21 18zM162 168v-18h-85v18h85zM191 17l3 -4q-9 -15 -28 -15q-20 1 -24 15q-13 -16 -35 -15q-42 5 -45 57q2 61 49 66q15 0 30 -15l1 -1v15h35v-94q0 -13 3 -15t11 6z" />
    <glyph glyph-name="emacron" unicode="&#x113;" 
d="M112 72h34q0 21 -2 29q-2 12 -14 12q-18 2 -18 -41zM173 32l6 -4q-20 -31 -50 -30q-50 2 -52 61q3 58 52 62q46 0 49 -58h-65q2 -48 31 -48q16 0 29 17zM168 168v-18h-85v18h85z" />
    <glyph glyph-name="ecaron" unicode="&#x11b;" 
d="M112 72h34q0 21 -2 29q-2 12 -14 12q-18 2 -18 -41zM173 32l6 -4q-20 -31 -50 -30q-50 2 -52 61q3 58 52 62q46 0 49 -58h-65q2 -48 31 -48q16 0 29 17zM171 181l-32 -45h-23l-32 45h15l28 -25l29 25h15z" />
    <glyph glyph-name="imacron" unicode="&#x12b;" 
d="M159 6v-6h-61v6q16 1 14 16v75q1 13 -14 15v6h49v-97q0 -14 12 -15zM170 168v-18h-84v18h84z" />
    <glyph glyph-name="nacute" unicode="&#x144;" 
d="M194 6v-6h-60v6q13 1 12 15v62q1 21 -14 21q-12 -1 -21 -15v-68q0 -14 12 -15v-6h-61v6q14 1 13 16v75q1 14 -13 15v6h49v-18q14 21 36 21q34 -2 35 -36v-64q-1 -14 12 -15zM117 161l36 23q5 2 8 -1q3 -4 -1 -8l-27 -31q-7 -8 -14 -8q-12 1 -12 12q0 6 9 12z" />
    <glyph glyph-name="ncaron" unicode="&#x148;" 
d="M194 6v-6h-60v6q13 1 12 15v62q1 21 -14 21q-12 -1 -21 -15v-68q0 -14 12 -15v-6h-61v6q14 1 13 16v75q1 14 -13 15v6h49v-18q14 21 36 21q34 -2 35 -36v-64q-1 -14 12 -15zM173 181l-31 -45h-24l-31 45h14l29 -25l29 25h14z" />
    <glyph glyph-name="omacron" unicode="&#x14d;" 
d="M170 167v-19h-85v19h85zM108 59q-2 -57 20 -55q22 -3 20 55q2 58 -20 54q-22 2 -20 -54zM70 59q4 58 58 62q54 -4 58 -62q-4 -58 -58 -61q-54 2 -58 61z" />
    <glyph glyph-name="umacron" unicode="&#x16b;" 
d="M195 11v-6q-4 0 -10 -1q-29 -2 -40 -5v14q-1 -1 -3 -2q-17 -13 -33 -13q-34 0 -35 34v65q2 14 -13 15v6h48v-87q0 -18 15 -18q10 0 21 11v73q0 13 -14 15h-2v6h51v-92q-1 -16 15 -15zM162 168v-18h-85v18h85z" />
    <glyph glyph-name="uni01CE" unicode="&#x1ce;" 
d="M142 29v62q-7 16 -20 16q-22 0 -22 -48q-1 -48 21 -48q13 1 21 18zM165 181l-32 -45h-23l-32 45h15l28 -25l29 25h15zM191 17l3 -4q-9 -15 -28 -15q-20 1 -24 15q-13 -16 -35 -15q-42 5 -45 57q2 61 49 66q15 0 30 -15l1 -1v15h35v-94q0 -13 3 -15t11 6z" />
    <glyph glyph-name="uni01D0" unicode="&#x1d0;" 
d="M158 6v-6h-61v6q15 1 14 16v75q1 13 -14 15v6h49v-97q-1 -14 12 -15zM171 181l-31 -45h-24l-31 45h14l29 -25l28 25h15z" />
    <glyph glyph-name="uni01D2" unicode="&#x1d2;" 
d="M108 59q-2 -57 20 -55q22 -3 20 55q2 58 -20 54q-22 2 -20 -54zM70 59q4 58 58 62q54 -4 58 -62q-4 -58 -58 -61q-54 2 -58 61zM175 181l-32 -45h-23l-32 45h15l28 -25l29 25h15z" />
    <glyph glyph-name="uni01D4" unicode="&#x1d4;" 
d="M195 11v-6q-4 0 -10 -1q-29 -2 -40 -5v14q-1 -1 -3 -2q-17 -13 -33 -13q-34 0 -35 34v65q2 14 -13 15v6h48v-87q0 -18 15 -18q10 0 21 11v73q0 13 -14 15h-2v6h51v-92q-1 -16 15 -15zM167 181l-32 -45h-23l-32 45h15l28 -25l29 25h15z" />
    <glyph glyph-name="uni01D6" unicode="&#x1d6;" 
d="M195 11v-6q-4 0 -10 -1q-29 -2 -40 -5v14q-1 -1 -3 -2q-17 -13 -33 -13q-34 0 -35 34v65q2 14 -13 15v6h48v-87q0 -18 15 -18q10 0 21 11v73q0 13 -14 15h-2v6h51v-92q-1 -16 15 -15zM83 154q2 16 17 17q14 -1 16 -17q-2 -16 -16 -17q-14 1 -17 17zM137 154q2 16 16 17
q15 -2 17 -17q-1 -16 -17 -17q-14 1 -16 17zM170 204v-19h-84v19h84z" />
    <glyph glyph-name="uni01D8" unicode="&#x1d8;" 
d="M195 11v-6q-4 0 -10 -1q-29 -2 -40 -5v14q-1 -1 -3 -2q-17 -13 -33 -13q-34 0 -35 34v65q2 14 -13 15v6h48v-87q0 -18 15 -18q10 0 21 11v73q0 13 -14 15h-2v6h51v-92q-1 -16 15 -15zM83 154q2 16 17 17q14 -1 16 -17q-2 -16 -16 -17q-14 1 -17 17zM137 154q2 16 16 17
q15 -2 17 -17q-1 -16 -17 -17q-14 1 -16 17zM113 207l37 23q4 2 8 -2q3 -3 -1 -7l-28 -31q-6 -7 -13 -7q-13 1 -13 11q0 8 10 13z" />
    <glyph glyph-name="uni01DA" unicode="&#x1da;" 
d="M195 11v-6q-4 0 -10 -1q-29 -2 -40 -5v14q-1 -1 -3 -2q-17 -13 -33 -13q-34 0 -35 34v65q2 14 -13 15v6h48v-87q0 -18 15 -18q10 0 21 11v73q0 13 -14 15h-2v6h51v-92q-1 -16 15 -15zM83 154q2 16 17 17q14 -1 16 -17q-2 -16 -16 -17q-14 1 -17 17zM137 154q2 16 16 17
q15 -2 17 -17q-1 -16 -17 -17q-14 1 -16 17zM172 228l-32 -45h-23l-31 45h14l29 -25l28 25h15z" />
    <glyph glyph-name="uni01DC" unicode="&#x1dc;" 
d="M83 154q2 16 17 17q14 -1 16 -17q-2 -16 -16 -17q-14 1 -17 17zM137 154q2 16 16 17q15 -2 17 -17q-1 -16 -17 -17q-14 1 -16 17zM195 11v-6q-4 0 -10 -1q-29 -2 -40 -5v14q-1 -1 -3 -2q-17 -13 -33 -13q-34 0 -35 34v65q2 14 -13 15v6h48v-87q0 -18 15 -18q10 0 21 11
v73q0 13 -14 15h-2v6h51v-92q-1 -16 15 -15zM152 182h-14l-37 23q-11 6 -10 13q1 12 13 12q7 0 13 -8z" />
    <glyph glyph-name="uni0251" unicode="&#x251;" 
d="M142 29v62q-7 16 -20 16q-22 0 -22 -48q-1 -48 21 -48q13 1 21 18zM191 17l3 -4q-9 -15 -28 -15q-20 1 -24 15q-13 -16 -35 -15q-42 5 -45 57q2 61 49 66q15 0 30 -15l1 -1v15h35v-94q0 -13 3 -15t11 6z" />
    <glyph glyph-name="uni0261" unicode="&#x261;" 
d="M150 25v67q-1 20 -18 21q-24 0 -24 -52q0 -51 24 -51q13 0 18 15zM150 -23v34q-13 -12 -31 -12q-47 1 -48 60q5 59 58 62q16 0 32 -14l20 14h4v-140q-1 -54 -61 -55q-44 1 -46 30q1 18 17 19q15 -1 16 -18q0 -6 -3 -12q-2 -4 -1 -5q3 -6 17 -5q26 0 26 42z" />
    <glyph glyph-name="caron" unicode="&#x2c7;" 
d="M171 180l-31 -45h-24l-31 45h14l29 -25l28 25h15z" />
    <glyph glyph-name="uni02C9" unicode="&#x2c9;" 
d="M170 163v-18h-84v18h84z" />
    <glyph glyph-name="uni02CA" unicode="&#x2ca;" 
d="M112 135l36 23h1q9 6 9 13q-1 11 -12 12q-8 -1 -13 -8l-35 -40h14z" />
    <glyph glyph-name="uni02CB" unicode="&#x2cb;" 
d="M158 135l-35 40q-5 7 -13 8q-12 -1 -12 -12q-1 -8 10 -13l36 -23h14z" />
    <glyph glyph-name="dotaccent" unicode="&#x2d9;" 
d="M112 154q2 -17 15 -17q15 1 17 16q-2 15 -17 17q-13 -3 -15 -16z" />
    <glyph glyph-name="Alpha" unicode="&#x391;" 
d="M221 8v-8h-85v8h23l-17 42h-62l-18 -42h22v-8h-49v8h17l72 176h7l73 -176h17zM111 127l-28 -67h55z" />
    <glyph glyph-name="Beta" unicode="&#x392;" 
d="M67 8v165h-21v7h90q65 -1 67 -42q1 -36 -51 -43v-1q57 -5 58 -46q-2 -47 -67 -48h-97v8h21zM110 90v-82h20q35 -1 34 41q1 42 -34 41h-20zM110 173v-76h16q35 -2 34 38q1 40 -34 38h-16z" />
    <glyph glyph-name="Gamma" unicode="&#x393;" 
d="M204 180v-54h-8q-5 48 -50 47h-31v-165h22v-8h-85v8h21v165h-21v7h152z" />
    <glyph glyph-name="uni0394" unicode="&#x394;" 
d="M124 183h7l85 -183h-176zM112 133l-46 -99h90z" />
    <glyph glyph-name="Epsilon" unicode="&#x395;" 
d="M206 0h-156v8h20v165h-20v7h150v-48h-7q-7 41 -45 41h-35v-77q39 0 40 34h8v-76h-8q0 37 -40 34v-80h33q45 -1 53 51h7v-59z" />
    <glyph glyph-name="Zeta" unicode="&#x396;" 
d="M53 9l101 164h-33q-40 0 -50 -44h-9l3 51h136v-8l-101 -164h42q44 0 52 50h8l-2 -58h-147v9z" />
    <glyph glyph-name="Eta" unicode="&#x397;" 
d="M94 86v-78h22v-8h-85v8h21v165h-21v7h85v-7h-22v-77h67v77h-21v7h85v-7h-22v-165h22v-8h-85v8h21v78h-67z" />
    <glyph glyph-name="Theta" unicode="&#x398;" 
d="M107 108h42v21h8v-70h-8v20h-42v-20h-8v70h8v-21zM32 90q8 88 96 94q88 -6 96 -94q-8 -87 -96 -92q-88 5 -96 92zM80 90q-2 -88 48 -86q50 -2 48 86q2 89 -48 87q-50 2 -48 -87z" />
    <glyph glyph-name="Iota" unicode="&#x399;" 
d="M107 8v165h-23v7h88v-7h-23v-165h23v-8h-88v8h23z" />
    <glyph glyph-name="Kappa" unicode="&#x39a;" 
d="M118 0h-84v8h20v165h-20v7h84v-7h-21v-165h21v-8zM222 8v-8h-84v8h22l-62 83v5l66 77h-22v7h56v-7h-23l-48 -57l83 -108h12z" />
    <glyph glyph-name="Lambda" unicode="&#x39b;" 
d="M84 0h-49v8h17l73 176h6l73 -176h17v-8h-85v8h23l-48 119l-49 -119h22v-8z" />
    <glyph glyph-name="Mu" unicode="&#x39c;" 
d="M69 0h-52v8h21v165h-21v7h68l43 -118h1l42 118h67v-7h-20v-165h21v-8h-84v8h22v159h-1l-60 -167h-8l-60 165h-1v-157h22v-8z" />
    <glyph glyph-name="Nu" unicode="&#x39d;" 
d="M90 0h-54v8h22v165h-22v7h69l83 -113h1v106h-24v7h54v-7h-21v-175h-8l-122 166h-1v-156h23v-8z" />
    <glyph glyph-name="Xi" unicode="&#x39e;" 
d="M70 61h-9l13 63h9l-3 -16h103l3 14h9l-13 -62h-9l4 16h-104zM218 52l-13 -67h-9l3 15h-148l-3 -15h-9l13 65h9l-3 -15h148l3 17h9zM218 198l-14 -65h-10l3 14h-147l-3 -16h-9l14 67h9l-3 -16h147l4 16h9z" />
    <glyph glyph-name="Omicron" unicode="&#x39f;" 
d="M32 90q8 88 96 94q88 -6 96 -94q-8 -87 -96 -92q-88 5 -96 92zM80 90q-2 -88 48 -86q50 -2 48 86q2 89 -48 87q-50 2 -48 -87z" />
    <glyph glyph-name="Pi" unicode="&#x3a0;" 
d="M52 8v165h-21v7h194v-7h-22v-165h22v-8h-85v8h21v165h-67v-165h22v-8h-85v8h21z" />
    <glyph glyph-name="Rho" unicode="&#x3a1;" 
d="M131 0h-85v8h21v165h-21v7h98q63 -1 66 -46q-3 -49 -75 -51h-25v-75h21v-8zM110 173v-82h20q35 -1 34 41q1 42 -34 41h-20z" />
    <glyph glyph-name="Sigma" unicode="&#x3a3;" 
d="M45 2l90 77l-90 98v3h116q15 0 15 5q0 3 -2 9q-1 1 -1 2h9l16 -48h-9q-7 28 -27 25h-61l68 -73v-5l-71 -60h98l6 20h9l-22 -69h-9l5 14h-140v2z" />
    <glyph glyph-name="Tau" unicode="&#x3a4;" 
d="M173 0h-90v8h24v165h-14q-24 0 -41 -47q-1 -3 -1 -4h-9l3 58h166l3 -58h-9q0 1 -1 4q-15 48 -41 47h-14v-165h24v-8z" />
    <glyph glyph-name="Upsilon" unicode="&#x3a5;" 
d="M171 0h-88v8h22v71l-40 72q-4 12 -14 11q-5 0 -9 -5q-2 -4 -5 -4t-3 2q4 27 35 29q27 2 43 -32l32 -62l31 71q10 24 25 23q21 -1 22 -25q0 -6 -4 -6q-2 0 -4 5q-4 11 -14 11q-11 0 -19 -17l-33 -73v-71h23v-8z" />
    <glyph glyph-name="Phi" unicode="&#x3a6;" 
d="M84 180h88v-7h-23v-25q77 -3 79 -58q-2 -53 -79 -58v-24h23v-8h-88v8h23v24q-77 5 -79 58q2 55 79 58v25h-23v7zM107 40v101q-38 -1 -38 -51t38 -50zM149 141v-101q38 0 38 50t-38 51z" />
    <glyph glyph-name="Chi" unicode="&#x3a7;" 
d="M95 0h-61v8h23l52 72l-58 93h-17v7h89v-7h-24l37 -58l40 58h-26v7h59v-7h-22l-46 -66l63 -99h18v-8h-90v8h23l-40 64l-46 -64h26v-8z" />
    <glyph glyph-name="Psi" unicode="&#x3a8;" 
d="M172 0h-88v8h23v37q-69 0 -68 82q0 14 -7 13q-8 0 -10 -14v-1h-8q2 34 31 34q36 5 36 -67q2 -37 26 -39v120h-23v7h88v-7h-23v-120q24 2 26 39q0 72 36 67q29 0 31 -34h-8v1q-2 14 -10 14q-7 1 -7 -13q1 -82 -68 -82v-37h23v-8z" />
    <glyph glyph-name="uni03A9" unicode="&#x3a9;" 
d="M235 53l-18 -53h-74q27 57 28 108q0 68 -43 68t-43 -68q1 -51 28 -108h-74l-18 53h9l7 -21h50q3 0 3 2t-3 4q-48 20 -48 70q5 72 89 76q84 -4 89 -76q0 -50 -48 -70q-3 -2 -3 -4t3 -2h50l7 21h9z" />
    <glyph glyph-name="alpha" unicode="&#x3b1;" 
d="M201 21l6 -6q-12 -15 -32 -15q-22 0 -30 19q-17 -18 -44 -19q-50 2 -52 53q5 57 64 63q38 0 54 -51q9 16 8 46q0 2 2 2q10 0 16 -3q1 -1 1 -5q0 -31 -23 -59q3 -30 17 -32q7 1 13 7zM140 29q-6 18 -11 47q-3 34 -17 32q-23 -3 -25 -63q0 -32 21 -32q14 0 32 16z" />
    <glyph glyph-name="beta" unicode="&#x3b2;" 
d="M96 -51h-36v169q1 58 62 59q56 -3 59 -45q0 -32 -37 -40v-2q50 -6 52 -45q-2 -46 -57 -48q-30 0 -42 15h-1v-63zM96 132v-95q6 -27 32 -27q27 0 27 37q0 36 -23 36q-1 0 -4 -1q-5 -1 -9 -1q-8 0 -8 9t8 9q4 0 9 -1q3 -1 4 -1q11 -2 10 35q1 36 -23 36t-23 -36z" />
    <glyph glyph-name="gamma" unicode="&#x3b3;" 
d="M146 29l7 17q9 21 14 48q3 26 18 24q13 0 13 -13q-4 -34 -49 -96l3 -9q5 -15 5 -25q0 -25 -20 -25q-19 0 -19 18q0 22 18 42l-6 21q-15 56 -43 55q-12 0 -18 -13q-3 -7 -6 -7q-4 0 -5 10q3 40 35 42q42 -3 53 -89z" />
    <glyph glyph-name="delta" unicode="&#x3b4;" 
d="M108 51q-2 -49 22 -47q23 -2 21 47q1 52 -21 51q-23 1 -22 -51zM121 107q-2 1 -7 3q-39 15 -38 40q2 30 38 32q53 -2 62 -44q0 -4 -3 -4q-1 0 -10 5q-36 22 -60 22q-18 0 -17 -11q0 -10 33 -24q71 -31 71 -76q-3 -50 -62 -51q-58 3 -62 55q2 48 55 53z" />
    <glyph glyph-name="epsilon" unicode="&#x3b5;" 
d="M174 36h9q-10 -36 -60 -36q-50 1 -51 34q1 21 28 28q-26 6 -26 25q1 31 53 32q46 -2 49 -21q-1 -10 -11 -11q-5 0 -13 10q-12 14 -24 14q-16 0 -17 -25q0 -16 13 -16q3 0 9 1q8 2 12 2q13 0 13 -10q0 -9 -13 -9q-3 0 -12 2q-7 1 -9 1q-14 0 -14 -18q0 -30 29 -30
q27 1 35 27z" />
    <glyph glyph-name="zeta" unicode="&#x3b6;" 
d="M135 25l15 -2q29 -3 29 -31q-2 -42 -51 -44q-33 0 -33 18q1 10 12 11q6 0 18 -5q12 -6 19 -6q23 1 23 17q-1 16 -23 16h-10q-60 -4 -57 40q0 35 42 98h-4q-3 -1 -5 -1q-20 1 -21 18q2 22 26 24q6 0 6 -4q0 -1 -3 -3q-9 -5 -9 -14q1 -11 11 -11q8 0 18 12q11 15 22 15
q13 -1 14 -12q0 -12 -20 -18q-23 -6 -28 -19q-11 -30 -13 -66q-3 -33 22 -33z" />
    <glyph glyph-name="eta" unicode="&#x3b7;" 
d="M91 0v76q0 19 -16 19q-12 0 -15 -15q-1 -6 -3 -6q-4 0 -4 6q1 34 28 35q23 0 28 -29q14 29 45 29q48 -1 49 -47v-102q2 -20 -19 -18q-21 -3 -18 18v108q0 29 -18 29t-18 -29v-74h-39z" />
    <glyph glyph-name="theta" unicode="&#x3b8;" 
d="M128 176q56 -5 60 -90q-3 -84 -60 -88q-57 4 -60 88q4 85 60 90zM109 85v-26q0 -56 19 -56t19 56v26h-38zM109 110v-15h38v15q0 59 -19 59t-19 -59z" />
    <glyph glyph-name="iota" unicode="&#x3b9;" 
d="M91 113h37v-75q0 -22 15 -22q14 0 14 22q0 7 4 6q5 1 4 -11q0 -33 -33 -33q-42 0 -41 38v75z" />
    <glyph glyph-name="kappa" unicode="&#x3ba;" 
d="M96 0h-37v113h37v-53q28 15 44 41q9 14 26 14q20 -1 22 -19q-1 -16 -16 -17q-4 0 -11 2t-11 2t-12 -5q-2 -1 -3 -2l44 -59q5 -8 14 -7q4 0 4 -2v-3q-1 -5 -30 -5q-22 -2 -35 17l-25 35l-11 -6v-46z" />
    <glyph glyph-name="lambda" unicode="&#x3bb;" 
d="M95 0h-40l49 104l-8 22q-9 24 -23 40q-4 4 -4 6t3 2q41 -2 78 -88q8 -18 17 -42q12 -33 20 -29q3 0 7 4q2 3 4 3q3 0 3 -4q-4 -17 -30 -18q-27 -3 -42 41l-14 41z" />
    <glyph glyph-name="uni03BC" unicode="&#x3bc;" 
d="M57 113h37v-67q0 -30 19 -29q19 -2 19 29l1 67h37v-29q-1 -22 -1 -34q-1 -36 14 -32q10 0 15 15q2 7 4 7q5 0 4 -7q-1 -32 -29 -33q-25 0 -26 33q-7 -33 -33 -33q-22 0 -31 22h-1v-22q1 -14 1 -22q1 -31 -19 -30q-19 -1 -18 30q0 17 4 53q-3 -27 0 3q2 41 3 79z" />
    <glyph glyph-name="nu" unicode="&#x3bd;" 
d="M89 105h-27v8h37q14 0 27 2v-95q32 21 35 50q0 5 -2 12q-1 2 -1 3q-3 6 -3 13q1 16 19 17q19 0 19 -19q-1 -33 -41 -69q-28 -24 -60 -28q-3 0 -3 1v105z" />
    <glyph glyph-name="xi" unicode="&#x3be;" 
d="M117 82v1q-36 4 -37 26q0 27 51 37h-3q-28 1 -28 17q1 18 19 19q7 0 8 -5q0 -2 -3 -5q-6 -4 -6 -9q0 -10 14 -10q7 0 18 7q10 7 15 7q11 0 11 -11q0 -12 -14 -13l-14 -1q-31 -2 -31 -32q0 -19 21 -19q5 0 16 4q10 3 15 3q12 0 12 -12t-12 -13q-2 0 -9 1q-11 3 -17 3
q-33 -1 -34 -29q-1 -21 25 -24l17 -2q33 -5 33 -33q-2 -38 -47 -41q-39 1 -40 18q1 10 9 10q6 0 18 -6q16 -8 28 -8q17 1 18 16q0 18 -25 18l-20 2q-53 2 -53 35q1 35 45 49z" />
    <glyph glyph-name="omicron" unicode="&#x3bf;" 
d="M128 115q61 -3 63 -59q-2 -55 -63 -57q-61 2 -63 57q2 56 63 59zM128 4q23 -1 22 52q1 54 -22 53q-23 1 -22 -53q-1 -53 22 -52z" />
    <glyph glyph-name="pi" unicode="&#x3c0;" 
d="M209 84h-37q1 -14 10 -37q8 -20 8 -30q0 -19 -21 -19t-21 19q0 9 7 27q8 24 9 40h-54q0 -15 6 -39q5 -19 5 -28q0 -19 -21 -19t-21 19q0 11 11 34t11 33h-21q-23 1 -27 -26h-7q1 54 43 55h70h50v-29z" />
    <glyph glyph-name="rho" unicode="&#x3c1;" 
d="M67 -44v101q1 60 63 61q56 -3 59 -61q-3 -57 -56 -58q-11 0 -24 5q-2 1 -3 1t-1 -3v-46q0 -7 -7 -8h-24q-7 1 -7 8zM147 59q0 54 -21 53q-21 1 -21 -53t21 -52q21 -2 21 52z" />
    <glyph glyph-name="sigma" unicode="&#x3c3;" 
d="M209 114v-27h-42q11 -12 12 -31q-3 -54 -66 -57q-63 3 -66 57q3 56 59 59q8 0 20 -1h10h73zM113 4q25 -2 24 52q1 55 -24 53q-25 2 -24 -53q-1 -54 24 -52z" />
    <glyph glyph-name="tau" unicode="&#x3c4;" 
d="M185 113v-29h-47q0 -12 10 -40q7 -20 7 -27q0 -19 -21 -19t-21 19q0 7 7 27q9 28 9 40h-34q-17 1 -18 -25h-6v14q0 41 36 40h78z" />
    <glyph glyph-name="upsilon" unicode="&#x3c5;" 
d="M129 77v-44q0 -21 14 -20q27 2 28 39q0 14 -10 33q-6 10 -6 14q1 16 16 17q25 0 25 -37q-7 -74 -62 -79q-45 0 -45 44q0 7 1 20v18q0 15 -10 15q-6 0 -12 -6q-3 -3 -6 -3q-2 0 -2 3q7 24 35 25q33 -1 34 -39z" />
    <glyph glyph-name="phi" unicode="&#x3c6;" 
d="M142 106l-6 -100q38 0 39 50q-1 49 -33 50zM120 6l-6 100q-32 -1 -33 -50q1 -50 39 -50zM133 -52h-10l-3 51q-77 3 -79 57q1 53 73 59l-1 16v4q-2 13 -2 24q0 21 17 21q18 0 17 -21q0 -6 -2 -24q2 13 0 -4l-1 -16q72 -6 73 -59q-2 -53 -79 -57z" />
    <glyph glyph-name="chi" unicode="&#x3c7;" 
d="M147 41l23 -59q7 -23 18 -21h9q3 0 3 -2q-2 -10 -28 -11q-34 -2 -48 49l-6 16q-22 -23 -38 -53l-1 -2q-4 -10 -10 -10t-6 7q5 24 49 72l-24 59q0 1 -1 2q-6 18 -20 17h-3q-3 -1 -4 -1q-3 0 -4 3q3 11 32 12q32 1 46 -43l7 -20q18 21 32 45q1 1 3 5q6 13 11 13t5 -7
q0 -14 -36 -60q-7 -8 -9 -11z" />
    <glyph glyph-name="psi" unicode="&#x3c8;" 
d="M133 -52h-10l-3 52q-70 2 -72 54q0 19 15 31l1 1q0 1 -1 1h-5q-17 0 -17 14q1 14 17 14q30 0 30 -43q0 -5 1 -16v-16q2 -31 26 -31h4q-2 28 -4 68q-5 78 -4 78q0 19 17 19t17 -19q1 0 -4 -78q-2 -40 -4 -68h4q24 0 26 31q0 6 1 16v16q0 43 30 43q16 0 17 -14
q0 -14 -17 -14h-5q-1 0 -1 -1l1 -1q15 -12 15 -31q-2 -52 -72 -54z" />
    <glyph glyph-name="omega" unicode="&#x3c9;" 
d="M131 24l-1 6q0 2 -2 2t-2 -2l-2 -6q-6 -24 -36 -24q-47 3 -50 50q2 58 57 66q6 0 5 -2l-2 -2q-2 -3 -4 -5q-17 -17 -17 -56q0 -36 20 -36q18 1 18 19q0 6 -4 18q-3 11 -3 16q0 19 20 19q19 0 19 -19q0 -5 -3 -16q-4 -12 -4 -18q1 -18 18 -19q21 0 21 36q0 39 -17 56
q-1 2 -4 5l-2 2q-1 2 5 2q55 -8 57 -66q-3 -47 -51 -50q-30 0 -36 24z" />
    <glyph glyph-name="uni0401" unicode="&#x401;" 
d="M83 39v88q4 36 -20 31v8h117q0 -2 1 -14q1 -17 2 -26h-9q-4 18 -10 23q-6 6 -27 6h-10q-13 2 -11 -9v-53h19q27 -4 26 22h9v-56h-9q1 26 -26 21h-19v-40q0 -24 7 -26q6 -2 22 -2q22 0 29 7q6 8 12 26l10 -2q0 -2 -1 -6q-6 -31 -8 -37h-127v8q27 -3 23 31zM154 174
q-13 1 -14 14q1 13 14 14q12 -1 13 -14q-1 -13 -13 -14zM106 174q-13 1 -14 14q1 13 14 14q12 -1 13 -14q-1 -13 -13 -14z" />
    <glyph glyph-name="uni0410" unicode="&#x410;" 
d="M141 0v8l7 1q14 0 6 15q-4 12 -12 32h-45q-1 -4 -5 -13q-3 -11 -5 -17q-7 -18 9 -17l6 -1v-8h-58v8q20 -2 28 26l52 132l12 3l17 -47q17 -49 32 -87q9 -29 26 -27v-8h-70zM119 121l-18 -52h37l-18 52h-1z" />
    <glyph glyph-name="uni0411" unicode="&#x411;" 
d="M80 39v88q4 36 -20 31v8h119q1 -4 3 -34q-1 3 0 -6h-9q-4 19 -9 23q-5 6 -28 6h-14q-12 2 -10 -9v-50h28q55 -2 57 -44q0 -29 -23 -42q-17 -10 -51 -10h-64v8q25 -3 21 31zM124 85h-12v-45q-2 -33 16 -28q32 3 33 38q0 35 -37 35z" />
    <glyph glyph-name="uni0412" unicode="&#x412;" 
d="M60 166h71q27 1 42 -8q15 -10 15 -29q-2 -30 -37 -37q45 -8 46 -43q0 -26 -22 -39q-19 -10 -50 -10h-67v8q26 -3 22 31v88q4 36 -20 31v8zM112 140v-46h6q35 0 35 31q0 30 -29 30q-8 0 -11 -1q-1 0 -1 -14zM117 84h-5v-44q-2 -32 17 -29q31 2 32 35q-1 37 -44 38z" />
    <glyph glyph-name="uni0413" unicode="&#x413;" 
d="M88 39v88q4 36 -20 31v8h117q1 -4 3 -34q-1 3 0 -6h-9q-4 19 -9 23q-5 6 -28 6h-10q-12 2 -10 -9v-107q-5 -34 24 -31v-8h-78v8q24 -3 20 31z" />
    <glyph glyph-name="uni0414" unicode="&#x414;" 
d="M169 0h-83q-23 5 -27 -27l-4 -17h-9v46q-1 8 7 7h5q9 -1 13 7q18 33 18 128q2 12 -14 13l-10 1v8h141v-8q-26 5 -22 -31v-95q-2 -27 10 -23h9q8 1 7 -8v-45h-9l-6 28q-3 18 -26 16zM97 11h38q18 -3 16 19v107q3 23 -10 18h-26q-15 2 -12 -7q0 -89 -12 -127v-1
q-5 -10 6 -9z" />
    <glyph glyph-name="uni0415" unicode="&#x415;" 
d="M83 39v88q4 36 -20 31v8h117q0 -2 1 -14q1 -17 2 -26h-9q-4 18 -10 23q-6 6 -27 6h-10q-13 2 -11 -9v-53h19q27 -4 26 22h9v-56h-9q1 26 -26 21h-19v-40q0 -24 7 -26q6 -2 22 -2q22 0 29 7q6 8 12 26l10 -2q0 -2 -1 -6q-6 -31 -8 -37h-127v8q27 -3 23 31z" />
    <glyph glyph-name="uni0416" unicode="&#x416;" 
d="M144 127v-34q23 0 32 10q9 8 23 42q11 25 28 25q14 0 15 -9q0 -11 -10 -11h-6q-12 5 -28 -34q-8 -18 -23 -25v-1q20 -5 31 -24q2 -5 9 -20q6 -13 9 -19q8 -19 26 -19v-8h-30q-21 0 -32 24q-2 4 -8 20l-6 15q-8 28 -30 25v-45q-4 -34 21 -31v-8h-74v8q25 -3 21 31v45
q-22 3 -30 -25l-6 -15q-6 -16 -8 -20q-11 -24 -32 -24h-30v8q18 0 26 19q3 6 9 19q7 15 9 20q11 19 31 24v1q-15 7 -23 25q-16 39 -28 34h-6q-10 0 -10 11q1 9 15 9q17 0 28 -25q14 -34 23 -42q9 -10 32 -10v34q4 36 -21 31v8h74v-8q-25 5 -21 -31z" />
    <glyph glyph-name="uni0417" unicode="&#x417;" 
d="M84 120l-9 2q1 5 4 28q1 9 1 11q4 1 18 5q15 4 31 4q50 -2 53 -39q0 -18 -13 -28q-10 -6 -24 -11q45 -9 45 -45q-2 -47 -69 -49q-30 0 -45 9q-9 8 -10 19q1 13 12 14q9 0 11 -7q11 -27 34 -26q29 4 30 37q-2 37 -27 41q-6 0 -10 -2q-5 -1 -11 -1q-10 1 -11 9q1 8 11 9h6
q3 -1 5 -1q5 -2 10 -2q21 3 22 29q-1 32 -27 33q-26 -1 -37 -39z" />
    <glyph glyph-name="uni0418" unicode="&#x418;" 
d="M60 39v88q4 36 -23 31v8h76v-8q-25 5 -21 -31v-81h1l67 91q4 7 4 10q2 11 -17 11v8h72v-8q-27 4 -23 -29v-90q-4 -34 22 -31v-8h-77v8q27 -3 23 31v84h-1l-68 -92q-4 -3 -3 -12q-2 -9 17 -11v-8h-71v8q26 -3 22 31z" />
    <glyph glyph-name="uni0419" unicode="&#x419;" 
d="M129 172q-35 1 -37 21q1 9 10 10q10 0 11 -11q1 -10 16 -10t16 10q1 11 11 11q9 -1 10 -10q-2 -20 -37 -21zM60 39v88q4 36 -23 31v8h76v-8q-25 5 -21 -31v-81h1l67 91q4 7 4 10q2 11 -17 11v8h72v-8q-27 4 -23 -29v-90q-4 -34 22 -31v-8h-77v8q27 -3 23 31v84h-1
l-68 -92q-4 -3 -3 -12q-2 -9 17 -11v-8h-71v8q26 -3 22 31z" />
    <glyph glyph-name="uni041A" unicode="&#x41a;" 
d="M69 39v88q4 36 -21 31v8h75v-8q-25 5 -21 -31v-32q21 -1 32 9q8 7 23 42q11 24 28 24q14 0 15 -9q0 -11 -10 -11h-6q-11 5 -28 -34q-8 -15 -22 -23l-1 -1v-1q19 -5 31 -26q1 -3 5 -11q8 -17 13 -27q8 -19 25 -19v-8h-29q-23 0 -32 24q-6 10 -14 35q-10 29 -30 27v-47
q-4 -34 21 -31v-8h-75v8q25 -3 21 31z" />
    <glyph glyph-name="uni041B" unicode="&#x41b;" 
d="M77 166h129v-8q-25 5 -21 -31v-88q-4 -34 21 -31v-8h-75v8q25 -3 21 31v98q3 23 -10 18h-18q-17 2 -14 -10q0 -107 -23 -137q-8 -10 -21 -10q-5 0 -12 1q-3 1 -4 1v5q17 5 29 27q19 33 19 112q3 15 -21 14v8z" />
    <glyph glyph-name="uni041C" unicode="&#x41c;" 
d="M180 166h52v-8q-26 4 -20 -31l1 -88q-3 -35 21 -31v-8h-73v8q23 -4 20 31v96h-1l-57 -132h-8l-53 126h-1l-3 -64q-1 -32 1 -44q0 -13 23 -13v-8h-61v8q18 0 19 13q2 12 5 47l3 52q8 43 -21 38v8h52l51 -115z" />
    <glyph glyph-name="uni041D" unicode="&#x41d;" 
d="M93 95h71v32q4 36 -22 31v8h77v-8q-26 5 -22 -31v-88q-4 -34 22 -31v-8h-79v8q29 -3 24 31v42h-71v-42q-4 -34 21 -31v-8h-76v8q25 -3 21 31v88q4 36 -22 31v8h76v-8q-24 5 -20 -31v-32z" />
    <glyph glyph-name="uni041E" unicode="&#x41e;" 
d="M132 170q76 -6 82 -84q-5 -83 -88 -88q-78 4 -84 83q7 85 90 89zM176 78q-1 79 -51 81q-43 -4 -45 -71q2 -77 52 -80q43 2 44 70z" />
    <glyph glyph-name="uni041F" unicode="&#x41f;" 
d="M152 155h-48q-12 2 -10 -9v-107q-4 -34 21 -31v-8h-76v8q25 -3 21 31v88q4 36 -22 31v8h180v-8q-26 5 -22 -31v-88q-4 -34 22 -31v-8h-79v8q29 -3 24 31v107q2 11 -11 9z" />
    <glyph glyph-name="uni0420" unicode="&#x420;" 
d="M114 146v-64q2 0 5 -1q7 -2 11 -2q28 3 29 41q0 35 -33 35q-7 0 -10 -1q-2 -2 -2 -8zM114 71v-32q-5 -34 25 -31v-8h-78v8q25 -3 21 31v88q4 36 -20 31v8h69q33 0 46 -10q18 -13 18 -37q-2 -43 -52 -51q-6 -1 -11 -1z" />
    <glyph glyph-name="uni0421" unicode="&#x421;" 
d="M200 122l-9 -1q-10 39 -46 38q-54 -3 -57 -72q3 -75 57 -79q33 -1 52 41l9 -2q-7 -27 -13 -44q-2 0 -7 -1q-26 -4 -41 -4q-90 2 -95 83q6 84 100 89q17 0 39 -5q5 -1 7 -1q3 -17 4 -42z" />
    <glyph glyph-name="uni0422" unicode="&#x422;" 
d="M144 155v-116q-5 -34 25 -31v-8h-82v8q29 -3 24 31v116h-6q-27 0 -32 -8q-4 -4 -9 -23h-9q2 36 3 49h4q6 -8 15 -7h102q8 -1 15 7h4q1 -8 2 -35q1 -9 1 -13l-9 -1q-4 21 -9 25q-7 6 -28 6h-11z" />
    <glyph glyph-name="uni0423" unicode="&#x423;" 
d="M45 166h72v-8l-8 -1q-9 -2 -3 -12l34 -69l26 64q8 17 -4 17l-7 1v8h56v-8q-23 1 -31 -24q-9 -20 -44 -99q-19 -39 -44 -39q-22 2 -23 16q0 8 7 11q8 2 15 -4q6 -4 13 -4q14 3 16 20q0 7 -6 18q-19 41 -44 91q-5 13 -25 14v8z" />
    <glyph glyph-name="uni0424" unicode="&#x424;" 
d="M91 166h74v-8q-21 1 -20 -14q68 -6 71 -60q-3 -53 -71 -59q-1 -18 20 -17v-8h-74v8q21 -1 20 17q-69 7 -71 60q3 53 71 59q-1 14 -20 14v8zM144 127v-88v-5q37 7 39 50q-2 44 -39 51v-8zM112 39v88q0 6 -1 8q-36 -7 -38 -50q1 -43 38 -51q1 2 1 5z" />
    <glyph glyph-name="uni0425" unicode="&#x425;" 
d="M136 0v8l7 1q7 1 8 3t-3 9q-2 5 -29 48q-14 -22 -27 -47q-7 -12 4 -13l9 -1v-8h-64v8q19 0 27 11q18 23 44 61l-38 59q-9 20 -29 19v8h75v-8l-8 -1q-7 -1 -7 -2q-2 -1 1 -6q1 -1 4 -7q14 -23 22 -35q2 3 5 8q14 21 20 32q3 6 2 7q0 2 -7 3l-9 1v8h61v-8q-21 0 -31 -16
q-17 -20 -34 -45l45 -69q10 -21 31 -20v-8h-79z" />
    <glyph glyph-name="uni0426" unicode="&#x426;" 
d="M180 0h-145v8q27 -3 23 31v88q4 36 -22 31v8h77v-8q-26 5 -22 -31v-107q-2 -11 10 -9h51q12 -2 10 9v107q5 36 -24 31v8h79v-8q-26 5 -22 -31v-95q-2 -27 10 -23h9q8 1 7 -8v-45h-9l-6 28q-3 18 -26 16z" />
    <glyph glyph-name="uni0427" unicode="&#x427;" 
d="M190 127v-88q-4 -34 21 -31v-8h-79v8q29 -3 24 31v40l-22 -8q-7 -3 -18 -3q-30 0 -42 17q-8 10 -8 30v12q4 36 -21 31v8h74v-8q-22 4 -19 -31v-9q0 -36 32 -36q12 1 24 7v38q4 36 -21 31v8h76v-8q-25 5 -21 -31z" />
    <glyph glyph-name="uni0428" unicode="&#x428;" 
d="M26 39v88q4 36 -21 31v8h74v-8q-22 4 -19 -31v-107q-2 -11 10 -9h31q13 -2 10 9v107q3 35 -19 31v8h72v-8q-22 4 -19 -31v-107q-2 -11 10 -9h31q13 -2 10 9v107q4 36 -20 31v8h75v-8q-25 5 -21 -31v-88q-4 -34 22 -31v-8h-248v8q26 -3 22 31z" />
    <glyph glyph-name="uni0429" unicode="&#x429;" 
d="M25 39v88q4 36 -22 31v8h74v-8q-22 4 -19 -31v-107q-2 -11 10 -9h32q12 -2 10 9v107q3 35 -19 31v8h71v-8q-22 4 -19 -31v-107q-2 -11 10 -9h32q12 -2 10 9v107q4 36 -21 31v8h76v-8q-26 5 -22 -31v-95q-2 -27 10 -23h9q8 1 7 -8v-45h-9l-6 28q-3 18 -26 16h-211v8
q27 -3 23 31z" />
    <glyph glyph-name="uni042A" unicode="&#x42a;" 
d="M103 39v107q3 11 -10 9h-11q-24 0 -28 -6q-6 -5 -9 -23h-9q2 33 2 40h118v-8q-25 5 -21 -31v-27h28q55 -2 57 -46q0 -30 -23 -44q-19 -10 -52 -10h-63v8q25 -3 21 31zM135 89v-54q-1 -25 16 -24q32 2 33 40q0 38 -37 38h-12z" />
    <glyph glyph-name="uni042B" unicode="&#x42b;" 
d="M42 39v88q4 36 -21 31v8h76v-8q-27 5 -23 -31v-27h28q54 -2 57 -46q0 -29 -24 -44q-19 -10 -52 -10h-63v8q26 -3 22 31zM86 89h-12v-54q-1 -26 15 -24q32 2 33 40q0 38 -36 38zM215 127v-88q-4 -34 21 -31v-8h-76v8q25 -3 21 31v88q4 36 -21 31v8h76v-8q-25 5 -21 -31z
" />
    <glyph glyph-name="uni042C" unicode="&#x42c;" 
d="M80 39v88q4 36 -20 31v8h76v-8q-29 5 -24 -31v-27h28q55 -2 57 -46q0 -30 -23 -44q-19 -10 -52 -10h-63v8q25 -3 21 31zM124 89h-12v-54q-1 -26 16 -24q32 2 33 40q0 38 -37 38z" />
    <glyph glyph-name="uni042D" unicode="&#x42d;" 
d="M69 117h-9q1 13 4 37q1 5 1 7q6 1 18 4q23 5 38 5q78 -2 83 -80q-1 -89 -88 -92q-32 0 -51 16q-12 12 -13 24q0 13 11 13q9 0 11 -10q14 -33 43 -34q47 5 50 74l-81 -3v17l81 -2q-3 66 -51 66q-33 0 -45 -37q-2 -4 -2 -5z" />
    <glyph glyph-name="uni042E" unicode="&#x42e;" 
d="M2 166h76v-8q-25 5 -21 -31v-34h31q14 74 86 77q73 -7 79 -84q-5 -83 -84 -88q-76 4 -82 83v1h-30v-43q-4 -34 21 -31v-8h-76v8q25 -3 21 31v88q4 36 -21 31v8zM125 88q2 -77 49 -80q41 1 42 70q-1 79 -49 81q-40 -4 -42 -71z" />
    <glyph glyph-name="uni042F" unicode="&#x42f;" 
d="M152 39v35h-6q-10 0 -16 -12q-11 -21 -20 -41q-10 -21 -38 -21h-22v8h1q11 2 15 7t15 25l3 6q18 32 29 33q-39 8 -40 42q1 45 61 45h71v-8q-25 5 -21 -31v-88q-4 -34 22 -31v-8h-75v8q25 -3 21 31zM152 84v60q3 14 -12 11q-31 -2 -32 -34q0 -36 38 -37h6z" />
    <glyph glyph-name="uni0430" unicode="&#x430;" 
d="M183 12l-28 -13q-17 0 -21 15q-2 -1 -5 -3q-20 -12 -24 -12q-29 1 -32 29q0 19 19 28q2 1 6 2q28 11 35 16v9q0 18 -16 19q-13 0 -18 -24q-1 -6 -9 -6q-15 3 -16 12q0 6 9 13q18 13 45 19q15 0 24 -7q12 -8 12 -25v-53q0 -14 6 -14t10 2zM133 23v40l-8 -4q-6 -4 -9 -5
q-11 -8 -11 -19q1 -16 14 -19q6 0 14 7z" />
    <glyph glyph-name="uni0431" unicode="&#x431;" 
d="M98 101q14 14 33 15q52 -3 56 -57q-2 -57 -62 -60q-53 2 -56 64q0 39 21 68q10 13 26 24l1 1q10 7 32 13q19 6 23 10t5 0q-1 -22 -15 -30q-10 -6 -32 -9q-24 -6 -27 -12q-5 -10 -5 -27zM125 105q-8 0 -16 -8q-8 -7 -7 -32q1 -54 27 -57q23 -1 23 46q-1 50 -27 51z" />
    <glyph glyph-name="uni0432" unicode="&#x432;" 
d="M87 26v61q2 19 -15 18v8h71q36 0 37 -26q0 -18 -24 -25q30 -5 31 -29q0 -33 -59 -33h-60v8q23 -1 19 18zM118 97v-32h6q23 1 24 19q0 19 -21 19q-11 2 -9 -6zM125 56h-7v-30q0 -18 12 -17q23 2 24 24q0 23 -29 23z" />
    <glyph glyph-name="uni0433" unicode="&#x433;" 
d="M80 113h94q0 -13 2 -35l-8 -1q-4 15 -8 20q-6 6 -12 5h-12q-9 2 -7 -7v-69q-4 -19 20 -18v-8h-69v8q22 -1 18 18v61q4 19 -18 17v9z" />
    <glyph glyph-name="uni0434" unicode="&#x434;" 
d="M161 0h-66q-14 3 -15 -18l-2 -12h-10v33q-1 7 7 6h4q3 0 4 4q4 5 7 24q4 27 5 58q1 8 -9 8l-8 1v9h108v-9q-21 1 -18 -15v-63q-1 -19 10 -17h4q6 0 6 -6v-33h-10l-2 12q-1 21 -15 18zM103 10h21q16 -3 13 16v67q2 11 -11 9h-11q-10 2 -9 -9q-1 -47 -7 -75q-3 -9 4 -8z
" />
    <glyph glyph-name="uni0435" unicode="&#x435;" 
d="M173 30l4 -5q-17 -25 -44 -26q-50 2 -54 52q5 59 58 65q36 -3 40 -39q1 -12 -5 -11q-12 -2 -63 -4q1 -40 36 -42q14 0 28 10zM110 73l33 1q6 -1 5 6q-2 22 -18 24q-17 -3 -20 -31z" />
    <glyph glyph-name="uni0436" unicode="&#x436;" 
d="M96 113h63v-9q-19 2 -16 -17v-22q9 0 18 7q12 13 19 26q11 17 27 17q10 -1 11 -8q0 -9 -10 -9h-5q-12 1 -23 -19q-5 -8 -13 -13v-1q12 -4 19 -13q2 -3 7 -12q4 -7 7 -12q10 -21 22 -20v-8h-22q-20 0 -27 13q-3 7 -9 19q-4 9 -6 13q-5 11 -15 11v-30q-3 -19 16 -18v-8h-64
v8q22 -1 18 18v30q-10 0 -15 -11q-2 -4 -6 -13q-6 -12 -9 -19q-7 -13 -27 -13h-22v8q12 -1 22 20q3 5 7 12q5 9 7 12q7 9 19 13v1q-8 5 -13 13q-11 20 -23 19h-5q-10 0 -10 9q1 7 11 8q16 0 27 -17q7 -13 19 -26q9 -7 18 -7v22q4 19 -17 17v9z" />
    <glyph glyph-name="uni0437" unicode="&#x437;" 
d="M94 74l-9 1l3 30q20 11 38 11q45 -1 46 -30q0 -8 -8 -14q-4 -4 -21 -9v-1q33 -4 34 -29q-2 -33 -54 -34q-26 0 -38 9q-6 6 -6 14q2 12 13 13q7 1 13 -11q8 -17 20 -17q17 3 18 23q-1 25 -19 26h-3q-3 -1 -4 -1q-4 -1 -8 -1q-11 0 -11 7q0 8 11 8q3 0 8 -1h5q3 -1 4 -1
q13 1 14 18q-1 19 -18 20q-18 0 -28 -31z" />
    <glyph glyph-name="uni0438" unicode="&#x438;" 
d="M179 87v-61q-4 -19 18 -18v-8h-63v8q18 0 15 17v50h-1l-37 -49q0 -1 -2 -2q-2 -3 -2 -5v-5q0 -4 6 -5l4 -1v-8h-58v8q22 -1 18 18v61q4 19 -18 17v9h63v-9q-18 1 -15 -16v-50h1l38 50q3 3 3 7v4q0 3 -6 5h-4v9h58v-9q-22 2 -18 -17z" />
    <glyph glyph-name="uni0439" unicode="&#x439;" 
d="M128 132q15 0 14 8v2q-1 2 -1 3q-2 10 8 11q9 0 10 -12q-1 -20 -31 -21q-30 1 -31 21q1 12 10 12q10 -1 8 -11q0 -1 -1 -3v-2q-1 -8 14 -8zM179 87v-61q-4 -19 18 -18v-8h-63v8q18 0 15 17v50h-1l-37 -49q0 -1 -2 -2q-2 -3 -2 -5v-5q0 -4 6 -5l4 -1v-8h-58v8q22 -1 18 18
v61q4 19 -18 17v9h63v-9q-18 1 -15 -16v-50h1l38 50q3 3 3 7v4q0 3 -6 5h-4v9h58v-9q-22 2 -18 -17z" />
    <glyph glyph-name="uni043A" unicode="&#x43a;" 
d="M65 113h64v-9q-19 2 -16 -17v-22q9 0 17 7t20 26q11 17 26 17q10 -1 11 -8q0 -9 -9 -9h-5q-12 1 -24 -19q-5 -8 -12 -13v-1q1 0 2 -1q12 -5 16 -12q4 -5 14 -22q-1 2 1 -2q11 -21 21 -20v-8h-21q-20 0 -27 13q-5 8 -12 24l-4 8q-4 11 -14 11v-30q-3 -19 16 -18v-8h-64v8
q21 -1 17 18v61q4 19 -17 17v9z" />
    <glyph glyph-name="uni043B" unicode="&#x43b;" 
d="M82 113h107v-9q-22 2 -18 -17v-61q-4 -19 18 -18v-8h-68v8q22 -1 19 18v66q2 12 -10 10h-7q-12 3 -10 -10q0 -55 -18 -86q-7 -8 -14 -7q-8 0 -14 1v6q15 9 22 23q12 26 12 62q4 14 -19 13v9z" />
    <glyph glyph-name="uni043C" unicode="&#x43c;" 
d="M157 113h48v-9q-21 3 -17 -18l1 -60q-3 -20 18 -18v-8h-62v8q21 -2 17 18l-1 67l-39 -91h-6l-35 85h-1l-1 -38q-1 -15 0 -27v-3q0 -10 18 -11v-8h-48v8q14 1 15 10v2q3 11 3 26l2 36q6 25 -16 22v9h45l30 -69z" />
    <glyph glyph-name="uni043D" unicode="&#x43d;" 
d="M108 65h40v22q3 19 -14 17v9h61v-9q-19 2 -16 -17v-61q-3 -20 16 -18v-8h-61v8q17 -2 14 18v29h-40v-29q-2 -20 13 -18v-8h-60v8q20 -2 17 18v61q3 19 -18 17v9h61v-9q-15 2 -13 -17v-22z" />
    <glyph glyph-name="uni043E" unicode="&#x43e;" 
d="M131 8q21 0 21 43q-1 53 -27 54q-20 -4 -21 -41q1 -54 27 -56zM128 -1q-55 2 -59 55q4 56 60 62q53 -3 58 -57q-2 -57 -59 -60z" />
    <glyph glyph-name="uni043F" unicode="&#x43f;" 
d="M60 113h136v-9q-20 2 -17 -17v-61q-4 -19 17 -18v-8h-62v8q16 -2 14 18v69q1 9 -8 7h-24q-9 2 -8 -7v-69q-2 -20 13 -18v-8h-61v8q21 -1 17 18v61q4 19 -17 17v9z" />
    <glyph glyph-name="uni0440" unicode="&#x440;" 
d="M113 118v-18l24 14q3 2 10 2q42 -3 46 -50q-3 -53 -61 -66q-13 0 -19 2v-30q-4 -19 23 -17v-8h-71l-1 8q22 -2 18 17v112q4 18 -18 16v7q9 1 28 6q13 3 21 5zM113 89v-69q10 -8 22 -8q25 2 26 43q-1 38 -29 41q-12 0 -19 -7z" />
    <glyph glyph-name="uni0441" unicode="&#x441;" 
d="M173 31l5 -6q-19 -25 -44 -26q-51 2 -56 52q1 30 25 49q21 15 43 16q13 0 24 -7q3 -2 3 -7q-1 -14 -10 -16q-1 0 -5 2q-14 13 -27 13q-21 -3 -22 -36q1 -40 36 -45q15 0 28 11z" />
    <glyph glyph-name="uni0442" unicode="&#x442;" 
d="M144 102v-76q-4 -19 20 -18v-8h-69v8q21 -1 17 18v76h-7q-10 1 -15 -5q-4 -5 -8 -20l-8 1q0 4 1 13q1 19 2 22h102q1 -3 2 -22q1 -9 1 -13l-8 -1q-4 15 -8 20q-4 6 -15 5h-7z" />
    <glyph glyph-name="uni0443" unicode="&#x443;" 
d="M127 113v-8l-8 -1q-8 0 -4 -10l22 -53q4 8 19 48q2 4 2 5q5 10 -4 10l-9 1l-1 8h49l1 -8q-18 0 -22 -16q-7 -13 -27 -58q-2 -7 -4 -10q-5 -10 -11 -25q-13 -28 -15 -31q-10 -20 -22 -19q-14 1 -16 14q0 7 5 8q25 7 31 22q1 2 3 7l2 3q2 5 -1 10q-17 45 -33 79
q-6 17 -21 16l-1 8h65z" />
    <glyph glyph-name="uni0444" unicode="&#x444;" 
d="M143 96v-79q6 -7 16 -8q25 3 26 49q-1 47 -27 48q-10 0 -15 -10zM143 182v-73q11 7 24 7q47 -4 50 -57q-3 -56 -53 -59q-10 -1 -21 4v-32q-4 -19 19 -17v-8h-68v8q23 -2 19 17v33q-12 -5 -24 -5q-47 3 -50 55q3 57 53 61q11 1 21 -5v38q4 18 -19 17v7q27 2 49 9zM113 19
v80q-7 6 -18 7q-23 -4 -24 -49q1 -47 27 -48q9 1 15 10z" />
    <glyph glyph-name="uni0445" unicode="&#x445;" 
d="M66 113h61v-8l-6 -1q-7 -1 -2 -8l14 -21q9 13 14 22q3 3 3 5q0 1 -4 2l-6 1v8h48v-8q-17 0 -30 -15q-4 -4 -19 -24l26 -40q12 -19 27 -18v-8h-64l-1 8l7 1q7 2 2 9l-15 23q-1 -2 -4 -6q-8 -10 -11 -16q-7 -9 0 -10l7 -1v-8h-50v8h3q17 1 26 15q1 1 3 4q13 14 20 24
l-25 39q-8 16 -24 15v8z" />
    <glyph glyph-name="uni0446" unicode="&#x446;" 
d="M147 18v69q2 19 -14 17v9h63v-9q-22 2 -18 -17v-61q-1 -19 10 -17h4q6 1 5 -6v-33h-9l-2 12q-1 21 -16 18h-111v8q21 -1 17 18v61q4 19 -17 17v9h61v-9q-14 2 -12 -17v-69q-2 -9 7 -8h25q9 -1 7 8z" />
    <glyph glyph-name="uni0447" unicode="&#x447;" 
d="M174 89v-63q-3 -19 19 -18v-8h-70v8q25 -1 21 18v21q-4 0 -13 -1q-8 -1 -13 -1q-20 0 -30 9q-10 7 -9 23v11q3 18 -16 16v9h58v-9q-13 1 -11 -14v-14q0 -21 21 -21q7 0 13 2v32q2 16 -12 15v9h61v-9q-22 1 -19 -15z" />
    <glyph glyph-name="uni0448" unicode="&#x448;" 
d="M42 26v61q3 19 -17 17v9h60v-9q-14 2 -12 -17v-69q-2 -9 7 -8h25q9 -1 7 8v69q3 19 -16 17v9h60v-9q-14 2 -12 -17v-69q-2 -9 7 -8h25q9 -1 7 8v69q3 19 -14 17v9h62v-9q-20 2 -17 -17v-61q-3 -20 17 -18v-8h-206v8q20 -2 17 18z" />
    <glyph glyph-name="uni0449" unicode="&#x449;" 
d="M41 29v58q4 19 -18 17v9h61v-9q-14 2 -12 -17v-69q-2 -9 8 -8h24q9 -1 8 8v69q3 19 -15 17v9h59v-9q-16 2 -13 -17v-69q-2 -9 7 -8h25q9 -1 7 8v69q3 19 -14 17v9h63v-9q-20 2 -17 -17v-61q-1 -20 9 -17h4q5 1 6 -6v-33h-10q0 3 -1 8q-2 25 -16 22h-182v8q20 -3 17 21z
" />
    <glyph glyph-name="uni044A" unicode="&#x44a;" 
d="M133 87v-18h20q49 0 49 -33q0 -36 -57 -36h-60v8q22 -1 18 18v69q2 9 -8 7h-9q-12 1 -16 -5q-5 -9 -8 -21l-8 1q0 5 2 17q1 16 1 19h94v-8q-22 2 -18 -18zM133 60v-37q-2 -16 12 -14q23 1 24 26q0 25 -26 25h-10z" />
    <glyph glyph-name="uni044B" unicode="&#x44b;" 
d="M172 26v61q3 19 -17 17v9h65v-9q-20 2 -17 -17v-61q-3 -20 17 -18v-8h-65v8q20 -2 17 18zM84 87v-18h20q50 0 49 -34t-56 -35h-61v8q22 -1 18 18v61q3 19 -16 18v8h64v-8q-21 2 -18 -18zM84 60v-37q-1 -16 12 -14q23 1 24 26q0 25 -26 25h-10z" />
    <glyph glyph-name="uni044C" unicode="&#x44c;" 
d="M117 87v-18h21q49 1 48 -34q0 -34 -56 -35h-61v8q22 -1 18 18v61q3 20 -15 18v8h63v-8q-21 2 -18 -18zM117 60v-37q-1 -16 12 -14q24 1 24 26t-25 25h-11z" />
    <glyph glyph-name="uni044D" unicode="&#x44d;" 
d="M79 76l5 30q17 8 39 8q56 -2 58 -56q-3 -56 -63 -59q-23 0 -36 10q-7 7 -7 13q1 10 11 11q7 0 13 -12q6 -14 21 -14q24 1 27 47l-48 -3v15l48 -2q-3 39 -30 40q-20 -1 -29 -30z" />
    <glyph glyph-name="uni044E" unicode="&#x44e;" 
d="M166 8q20 0 20 43q0 53 -26 54q-20 -4 -21 -41q1 -54 27 -56zM34 104v9h66v-9q-22 2 -18 -17v-26h22q8 51 60 55q53 -3 58 -57q-2 -57 -59 -60q-55 2 -59 53h-22v-26q-4 -19 18 -18v-8h-66v8q22 -1 18 18v61q4 19 -18 17z" />
    <glyph glyph-name="uni044F" unicode="&#x44f;" 
d="M144 58v37q2 9 -11 8q-19 -3 -20 -22q0 -14 11 -20q7 -3 16 -3h4zM144 26v23h-8q-6 0 -10 -5q-4 -4 -10 -23q-1 -3 -1 -4q-5 -17 -23 -17h-28v8q1 0 3 1q7 1 9 4q5 3 11 18q7 18 19 24q-24 8 -25 27q1 30 47 31h64v-9q-22 2 -18 -17v-61q-4 -19 18 -18v-8h-65v8
q21 -1 17 18z" />
    <glyph glyph-name="uni0451" unicode="&#x451;" 
d="M173 30l4 -5q-17 -25 -44 -26q-50 2 -54 52q5 59 58 65q36 -3 40 -39q1 -12 -5 -11q-12 -2 -63 -4q1 -40 36 -42q14 0 28 10zM110 73l33 1q6 -1 5 6q-2 22 -18 24q-17 -3 -20 -31zM154 129q-12 1 -13 14q1 13 13 14q13 -1 14 -14q-1 -13 -14 -14zM109 129q-13 1 -14 14
q1 13 14 14q12 -1 13 -14q-1 -13 -13 -14z" />
    <glyph glyph-name="uni2010" unicode="&#x2010;" 
d="M159 73h-62v-29h62v29z" />
    <glyph glyph-name="endash" unicode="&#x2013;" 
d="M79 94v-8h98v8h-98z" />
    <glyph glyph-name="emdash" unicode="&#x2014;" 
d="M0 93h256v-11h-256v11z" />
    <glyph glyph-name="uni2015" unicode="&#x2015;" 
d="M16 94v-8h224v8h-224z" />
    <glyph glyph-name="uni2016" unicode="&#x2016;" 
d="M111 -26h-11v234h11v-234zM156 -26h-11v234h11v-234z" />
    <glyph glyph-name="quoteleft" unicode="&#x2018;" 
d="M209 202v-3q-20 -11 -24 -34q14 -2 20 -7q7 -5 7 -14q0 -15 -16 -17h-3q-19 3 -21 25q0 14 8 27q11 17 29 23z" />
    <glyph glyph-name="quoteright" unicode="&#x2019;" 
d="M84 179v-4q0 -17 -14 -33q-9 -10 -24 -15v3q21 13 24 35h-1q-12 2 -17 5q-8 8 -8 14v1q2 16 18 17q11 1 17 -7q5 -7 5 -16z" />
    <glyph glyph-name="quotedblleft" unicode="&#x201c;" 
d="M226 128h-1q-20 3 -22 24v1q0 14 9 27q11 17 29 23v-3q-21 -16 -24 -35q26 -1 26 -20v-1q0 -16 -17 -16zM164 128h-1q-20 3 -22 24v1q0 14 9 27q11 17 29 23v-3q-21 -16 -24 -35q26 -1 26 -20v-1q0 -16 -17 -16z" />
    <glyph glyph-name="quotedblright" unicode="&#x201d;" 
d="M114 178v-4q-1 -12 -8 -24q-11 -17 -29 -22v3q18 10 24 35q-11 0 -16 3q-10 5 -11 15v3q2 13 17 16h3q12 -2 17 -10q3 -5 3 -15zM55 178v-5q-1 -10 -8 -24q-11 -16 -29 -22v3q17 10 24 35q-9 0 -16 3q-10 7 -11 16v2q2 15 17 16h2q12 -1 17 -9q4 -7 4 -15z" />
    <glyph glyph-name="twodotenleader" unicode="&#x2025;" 
d="M159 93q2 14 15 15q14 -1 15 -15q-2 -13 -15 -14q-13 1 -15 14zM67 93q1 14 14 15q14 -1 15 -15q-2 -13 -15 -14q-12 1 -14 14z" />
    <glyph glyph-name="ellipsis" unicode="&#x2026;" 
d="M232 89v-1q-1 -16 -16 -17h-1q-16 1 -17 17v1q2 15 17 17h1q14 -1 16 -17zM144 89v-1q-1 -16 -16 -17h-1q-16 1 -17 17v1q2 15 17 17h1q14 -1 16 -17zM58 89v-1q-1 -16 -16 -17h-1q-16 1 -17 17v1q2 15 17 17h1q14 -1 16 -17z" />
    <glyph glyph-name="perthousand" unicode="&#x2030;" 
d="M26 108q0 -18 13 -18q27 6 32 53q0 1 -1 7q-1 4 -5 6q-1 1 -2 1q-2 1 -5 3q-4 2 -6 2q-20 -8 -26 -54zM146 181l-112 -186h-12l98 164q-11 -9 -28 -9q-9 0 -15 3q0 -2 1 -6v-5q-6 -58 -45 -60q-29 4 -31 35q3 48 48 56q13 0 20 -8q9 -8 22 -8q25 0 42 24h12zM85 32
q6 47 50 53q26 0 27 -31q-6 -54 -44 -57q-32 2 -33 35zM110 21q0 -18 13 -18q26 3 33 52q0 20 -15 22q-23 -5 -31 -56zM203 21q0 -18 13 -18q26 3 32 52q0 20 -15 22q-22 -4 -30 -56zM178 30q4 49 49 55q26 0 27 -31q-6 -55 -44 -57q-31 2 -32 33z" />
    <glyph glyph-name="minute" unicode="&#x2032;" 
d="M29 106h-7l10 57q3 21 17 20q13 -1 14 -12q0 -6 -5 -13z" />
    <glyph glyph-name="second" unicode="&#x2033;" 
d="M7 106h-6l9 60q3 17 18 17q12 -1 13 -12q0 -3 -3 -11q-1 -1 -1 -2zM50 106h-7l10 60q3 17 17 17t14 -12q0 -6 -5 -13z" />
    <glyph glyph-name="uni2035" unicode="&#x2035;" 
d="M154 74l-48 84q-5 11 2 15q8 2 14 -8l35 -91h-3z" />
    <glyph glyph-name="uni203B" unicode="&#x203b;" 
d="M41 12l81 81l-77 77q-4 4 -1 8q4 3 8 -1l77 -77l80 80q3 3 6 -1q2 -4 -1 -8l-78 -78l79 -79q3 -8 -6 -8l-80 80l-80 -80q-8 -3 -8 6zM62 112q17 -2 19 -19q-2 -17 -19 -19q-17 2 -19 19q1 18 19 19zM129 43q17 -2 19 -19q-2 -17 -19 -19q-17 2 -19 19q1 18 19 19z
M195 112q17 -2 19 -19q-2 -17 -19 -19q-17 2 -19 19q1 18 19 19zM129 181q17 -2 19 -19q-2 -17 -19 -19q-17 2 -19 19q1 18 19 19z" />
    <glyph glyph-name="Euro" unicode="&#x20ac;" horiz-adv-x="214" 
d="M13 66l5 8h25q-1 5 -1 11q0 9 2 16h-32l5 9h28q20 64 88 67q15 0 38 -9q10 -4 12 -4q7 0 11 12h7v-60h-6q-23 50 -60 52q-40 0 -46 -58h85l-5 -9h-81v-15v-12h79l-3 -8h-75q2 -22 10 -36q13 -21 39 -23q32 -1 60 32l8 -6q-31 -37 -72 -36q-74 2 -90 69h-31z" />
    <glyph glyph-name="uni2103" unicode="&#x2103;" 
d="M52 123q24 2 26 28q-2 25 -26 27q-23 -3 -26 -27q3 -25 26 -28zM52 114q-34 3 -37 37q3 33 37 36q34 -3 37 -36q-3 -34 -37 -37zM233 39l7 -6q-29 -37 -71 -36q-87 3 -92 88q6 86 91 92q15 0 37 -9q10 -4 12 -4q6 0 11 10q1 1 1 2h7v-60h-7q-23 51 -59 52q-48 0 -48 -82
q0 -37 11 -56q13 -21 39 -23q32 -1 61 32z" />
    <glyph glyph-name="uni2105" unicode="&#x2105;" 
d="M145 29q4 49 54 56q27 0 28 -32q-7 -53 -49 -56q-30 3 -33 32zM163 22q0 -20 17 -21q35 4 41 53q-1 24 -20 25q-25 -2 -38 -57zM99 117h6q-15 -33 -42 -34q-32 1 -34 40q6 46 50 51q30 -1 31 -23q-1 -12 -13 -13q-11 0 -11 8q0 7 8 12q3 2 3 3q-2 5 -16 7q-28 -4 -35 -57
q0 -21 20 -21q21 1 33 27zM73 -12h-8l114 196h9z" />
    <glyph glyph-name="uni2109" unicode="&#x2109;" 
d="M56 112q24 2 26 28q-2 25 -26 27q-24 -2 -26 -27q2 -26 26 -28zM56 103q-34 3 -37 37q3 33 37 36q34 -3 37 -36q-3 -34 -37 -37zM91 166v7h145v-52h-6q-3 46 -56 43q-21 2 -19 -12v-59q37 -3 39 38h7v-87h-7q-3 42 -39 40v-60q-3 -19 28 -18v-6h-92v6h3q22 1 20 18v124
q1 20 -23 18z" />
    <glyph glyph-name="uni2116" unicode="&#x2116;" 
d="M170 72q-2 -49 19 -47q19 -2 18 47q1 51 -19 48q-20 2 -18 -48zM136 72q4 52 52 55q50 -3 53 -55q-4 -51 -53 -54q-48 3 -52 54zM226 8v-8h-70v8h70zM15 0v6q22 1 20 21v121q-15 21 -19 19v6h45l57 -96h1v65q0 25 -21 24v7h51v-7q-19 -1 -20 -24v-145h-8l-75 137v-102
q-2 -26 22 -26v-6h-53z" />
    <glyph glyph-name="uni2121" unicode="&#x2121;" 
d="M174 186v-38q-1 -6 10 -5h10q4 -1 13 12h3l-6 -16h-47v3q9 0 8 6v38q1 4 -8 4v4h25v-4q-9 0 -8 -4zM137 190h-19v-20h18q3 -1 4 8h3v-20h-3q-1 8 -4 8h-18v-18q-1 -6 6 -5h14q7 -1 11 11l3 -1l-4 -14h-46v3q8 -1 7 6v39q1 3 -7 3v4h44l1 -13h-2q-4 10 -8 9zM73 186v-39
q0 -5 9 -5v-3h-26v3q9 1 8 5v39q1 3 -3 3h-7q-6 0 -8 -7h-2l1 12h49l1 -12h-3q-2 8 -5 8h-9q-6 0 -5 -4z" />
    <glyph glyph-name="uni2160" unicode="&#x2160;" 
d="M162 13v-6h-69v6q20 0 19 18v125q1 19 -19 18v6h69v-6h-1q-18 0 -17 -18v-125q-1 -19 18 -18z" />
    <glyph glyph-name="uni2161" unicode="&#x2161;" 
d="M145 31v125q1 18 -18 18q-17 0 -16 -18v-125q-1 -18 16 -18q19 0 18 18zM61 7v6q19 0 18 18v125q0 16 -17 18h-1v6h134v-6h-1q-18 0 -17 -18v-125q-1 -18 19 -18v-6h-135z" />
    <glyph glyph-name="uni2162" unicode="&#x2162;" 
d="M112 31v125q1 18 -18 18q-17 0 -16 -18v-125q-1 -18 17 -18q18 1 17 18zM28 7v6q19 0 18 18v125q0 16 -17 18h-1v6h200v-6h-2q-18 0 -17 -18v-125q-1 -18 19 -18v-6h-200zM178 31v125q1 18 -18 18q-17 0 -16 -18v-125q-1 -18 17 -18q18 1 17 18z" />
    <glyph glyph-name="uni2163" unicode="&#x2163;" 
d="M161 179v-6q-18 1 -16 -11q0 -8 6 -22l24 -81l23 85q4 9 4 17q1 12 -16 12v6h40v-6q-13 0 -17 -21l-42 -150h-5l-48 153q-4 17 -14 18q-24 2 -22 -18v-124q-1 -18 17 -18v-7h-65v7q19 0 18 18v124q1 19 -18 18v6h131z" />
    <glyph glyph-name="uni2164" unicode="&#x2164;" 
d="M216 177v-6q-18 0 -23 -21l-59 -150h-7l-65 153q-7 18 -22 18v6h86v-6q-25 0 -22 -11q0 -6 8 -22l33 -81l33 84q0 1 1 4q4 10 4 14q2 12 -22 12v6h55z" />
    <glyph glyph-name="uni2165" unicode="&#x2165;" 
d="M140 152l-42 -150h-5l-48 153q-5 18 -15 18v6h62v-6q-18 1 -16 -11q0 -3 4 -15q1 -5 2 -7l24 -81l23 85q4 9 4 17q1 12 -16 12v7h109v-7q-18 2 -18 -18v-124q-1 -18 18 -18v-7h-65v7q18 0 17 18v124q0 19 -16 18q-19 0 -22 -21z" />
    <glyph glyph-name="uni2166" unicode="&#x2166;" 
d="M209 30v124q0 19 -15 18q-24 2 -22 -18v-124q0 -17 21 -18q17 1 16 18zM127 6v6q17 1 16 18v124q0 18 -22 18q-10 -1 -15 -20l-40 -151h-5l-45 154q-4 18 -15 18v6h60v-6q-17 1 -15 -11q0 -7 5 -22l23 -81l22 84q4 12 4 18q1 12 -15 12v6h169v-6h-1q-16 0 -15 -19v-124
q-1 -18 17 -18v-6h-128z" />
    <glyph glyph-name="uni2167" unicode="&#x2167;" 
d="M153 7h-52v7q14 -1 13 18v123q0 18 -17 18q-9 -1 -12 -20l-32 -150h-4l-35 153q-4 18 -12 18v6h47v-6q-14 1 -12 -11q0 -3 2 -14q2 -6 2 -8l18 -81l18 84q3 9 3 18q1 12 -12 12v6h186v-6h-1q-12 0 -12 -19v-123q-1 -19 13 -18v-7h-49h-52zM166 32v123q0 19 -13 19
q-17 1 -16 -19v-123q0 -17 16 -18q14 -1 13 18zM218 32v123q0 19 -13 19q-18 1 -17 -19v-123q0 -17 18 -18q13 0 12 18z" />
    <glyph glyph-name="uni2168" unicode="&#x2168;" 
d="M119 28l32 56l-37 75l-1 1q-6 15 -14 14q-24 2 -22 -18v-124q-1 -17 24 -18q10 1 18 14zM29 7v7q18 0 17 18v124q1 19 -17 18v6h135v-6q-17 0 -15 -8q0 -3 2 -7q1 -2 1 -3l18 -38q17 32 18 36q3 6 3 11q0 7 -11 9h-2v6h47v-6q-15 9 -50 -66l33 -73q11 -24 19 -22v-6h-64
v6q16 1 15 9q-1 6 -4 13l-19 42l-7 -14q-19 -35 -17 -39q-1 -10 15 -11v-6h-117z" />
    <glyph glyph-name="uni2169" unicode="&#x2169;" 
d="M212 180v-6q-20 10 -68 -66l46 -73q15 -24 25 -22v-6h-87v6q23 1 21 9q-1 6 -6 13l-25 41l-10 -13q-27 -35 -24 -39q-1 -10 20 -11v-6h-64v6h2q16 3 25 15l45 56l-51 75q-8 14 -20 15v6h88v-6q-23 0 -20 -9q0 -4 4 -9l25 -39q36 50 29 48q0 7 -17 9h-2v6h64z" />
    <glyph glyph-name="uni216A" unicode="&#x216a;" 
d="M105 108l33 -73q9 -19 24 -22h1q17 1 16 18v125q0 19 -16 18q-25 10 -58 -66zM227 180v-6h-1q-18 0 -17 -18v-125q-1 -18 18 -18v-6h-134v6h2q14 0 13 8q0 4 -4 14l-19 41l-7 -13q-19 -35 -17 -39q-1 -10 15 -11v-6h-47v6q12 1 20 14l32 57l-37 75q-6 15 -15 15v6h65v-6
q-17 0 -15 -9q0 -2 2 -5q0 -3 1 -4l18 -39q17 33 18 37q3 6 3 11q0 7 -11 9h-2v6h119z" />
    <glyph glyph-name="uni216B" unicode="&#x216b;" 
d="M169 156v-125q0 -16 25 -18q16 1 15 18v125q0 16 -17 18h-2q-23 0 -21 -18zM73 108l31 -73q9 -20 22 -22q16 1 15 18v125q0 17 -13 18q-18 -1 -26 -12q-8 -7 -29 -54zM253 180v-6q-16 1 -16 -18v-125q-1 -18 16 -18v-6h-191v6h2q13 1 12 8q0 4 -4 14l-17 41l-7 -13
q-18 -35 -16 -39q0 -10 14 -11v-6h-43v6q11 1 18 14l30 57l-34 75q0 1 -1 2q-6 14 -13 13v6h60v-6q-16 0 -14 -8q0 -3 2 -7q1 -2 1 -3l16 -38l18 36q2 6 2 11q0 7 -10 9h-2v6h177z" />
    <glyph glyph-name="uni2170" unicode="&#x2170;" 
d="M158 11v-6h-61v6q1 0 3 1q12 2 11 15v75q1 13 -14 15v6h49v-97q-1 -14 12 -15zM109 162q1 19 20 20q17 -1 19 -20q-2 -19 -19 -20q-19 1 -20 20z" />
    <glyph glyph-name="uni2171" unicode="&#x2171;" 
d="M123 11v-6h-62v6q1 0 2 1q13 1 12 15v75q1 13 -14 15v6h50v-97q-1 -14 12 -15zM73 162q1 19 20 20q17 -1 19 -20q-2 -19 -19 -20q-19 1 -20 20zM194 11v-6h-61v6q1 0 3 1q12 2 11 15v75q1 13 -14 15v6h49v-97q-1 -14 12 -15zM144 162q2 18 20 20q18 -2 20 -20
q-2 -18 -20 -20q-18 2 -20 20z" />
    <glyph glyph-name="uni2172" unicode="&#x2172;" 
d="M158 11v-6h-61v6q1 0 3 1q12 2 11 15v75q1 13 -14 15v6h49v-97q-1 -14 12 -15zM109 162q1 19 20 20q17 -1 19 -20q-2 -19 -19 -20q-19 1 -20 20zM93 11v-6h-61v6q1 0 2 1q12 1 11 15v75q1 13 -13 15v6h49v-97q-1 -14 12 -15zM43 162q1 19 20 20q18 -2 20 -20
q-2 -18 -20 -20q-19 1 -20 20zM224 11v-6h-61v6q1 0 2 1q12 1 11 15v75q1 14 -13 15v6h49v-97q-1 -14 12 -15zM174 162q2 18 20 20q18 -2 20 -20q-2 -18 -20 -20q-19 1 -20 20z" />
    <glyph glyph-name="uni2173" unicode="&#x2173;" 
d="M100 11v-6h-61v6q1 0 2 1q12 1 11 15v75q1 14 -13 15v6h49v-97q-1 -14 12 -15zM50 162q2 18 20 20q18 -2 20 -20q-2 -18 -20 -20q-19 1 -20 20zM217 124v-6q-10 0 -15 -15l-41 -101h-6l-31 76q-13 29 -15 33q-3 5 -10 7q1 -1 -1 0v6h64v-6q-14 -1 -13 -7q0 -1 2 -8
l20 -52l19 47q0 2 1 4q2 5 2 7q0 7 -13 9h-2v6h39z" />
    <glyph glyph-name="uni2174" unicode="&#x2174;" 
d="M187 124v-6q-9 0 -14 -15l-41 -101h-7l-31 76q-7 18 -15 33q-3 5 -9 7q1 -1 -1 0v6h64v-6q-15 -1 -14 -7q0 -1 2 -8l21 -52l18 47q3 6 3 11q0 7 -12 9h-2v6h38z" />
    <glyph glyph-name="uni2175" unicode="&#x2175;" 
d="M220 11v-6h-61v6q1 0 3 1q12 2 11 15v75q1 13 -14 15v6h49v-97q-1 -14 12 -15zM170 162q2 18 20 20q18 -2 20 -20q-2 -18 -20 -20q-19 1 -20 20zM155 124v-6q-10 0 -15 -15l-41 -101h-7l-30 76q-3 8 -10 22q-5 10 -5 11q-3 4 -9 6q-1 1 -2 1v6h64v-6q-14 -1 -13 -7
q0 -1 2 -8l20 -52l18 47q3 6 3 11q0 7 -12 9h-2v6h39z" />
    <glyph glyph-name="uni2176" unicode="&#x2176;" 
d="M253 12v-6h-62v6q16 1 14 15v75q1 15 -14 16v6h50v-98q-1 -13 12 -14zM203 163q2 19 20 20q17 -1 19 -20q-1 -19 -19 -20q-19 1 -20 20zM187 12v-6h-61v6q15 1 14 15v75q1 15 -14 16v6h49v-98q-1 -13 12 -14zM137 163q2 18 20 20q18 -2 20 -20q-1 -19 -20 -20
q-19 1 -20 20zM122 124v-6h-1q-9 0 -14 -14l-41 -101h-7l-30 75q-3 8 -10 22q-5 10 -5 11q-3 6 -10 7h-1v6h64v-6h-2q-12 -1 -11 -7q0 -1 2 -8l20 -52l18 47q3 6 3 12q1 9 -14 8v6h39z" />
    <glyph glyph-name="uni2177" unicode="&#x2177;" 
d="M202 12v-7h-49v7q12 1 11 15v75q1 15 -11 16v6h40v-98q0 -13 9 -14zM162 163q2 18 16 20q15 -2 16 -20q-1 -19 -16 -20q-15 2 -16 20zM150 12v-7h-50v7q12 1 11 15v75q1 15 -11 16v6h40v-98q0 -13 10 -14zM109 163q2 18 16 20q15 -2 16 -20q-1 -19 -16 -20q-15 1 -16 20z
M97 124v-6q-8 1 -13 -14l-33 -102h-5l-25 76q-3 10 -10 28q-2 4 -2 5q-1 7 -8 7v6h51v-6h-2q-10 -1 -9 -7q0 -1 2 -8l16 -52l15 47q3 6 3 12q0 9 -12 8v6h32zM255 11v-6h-49v6q12 1 11 15v76q1 14 -11 15v6h40v-97q-1 -14 9 -15zM215 162q1 18 16 20q15 -2 16 -20
q-1 -18 -16 -20q-15 2 -16 20z" />
    <glyph glyph-name="uni2178" unicode="&#x2178;" 
d="M96 11v-6h-61v6q1 0 2 1q12 1 11 15v75q1 14 -13 15v6h49v-97q-1 -14 12 -15zM46 162q2 18 20 20q18 -2 20 -20q-2 -18 -20 -20q-19 1 -20 20zM221 12v-6h-62v6q12 0 12 5q0 3 -5 11q-1 2 -5 8q-5 8 -9 14q-21 -25 -21 -31q0 -7 13 -7v-6h-43v6q6 -9 45 45l-32 51l-1 1
q-6 9 -13 9v6h64v-6q-12 0 -12 -5q0 -4 14 -23q3 -6 4 -7q24 31 19 28q2 7 -13 7v6h43v-6q-10 -1 -18 -10l-25 -32l38 -59q3 -4 7 -5z" />
    <glyph glyph-name="uni2179" unicode="&#x2179;" 
d="M188 12v-6h-61v6q11 0 11 5q0 3 -4 11l-1 1l-14 21q-19 -24 -20 -31q0 -7 12 -7v-6h-43v6q6 -9 46 45l-33 51q-6 9 -13 10v6h64v-6q-12 0 -12 -5q1 -7 18 -30q24 31 19 28q2 7 -13 7v6h43v-6q-12 -1 -18 -10l-26 -32l38 -59q3 -4 7 -5z" />
    <glyph glyph-name="arrowleft" unicode="&#x2190;" 
d="M256 94v-8h-210q20 -22 20 -46q-27 36 -66 51q38 14 66 49q-1 -27 -20 -46h210z" />
    <glyph glyph-name="arrowup" unicode="&#x2191;" 
d="M132 -36h-8v207q-24 -20 -46 -19q36 26 50 66q13 -38 50 -66q-28 1 -46 19v-207z" />
    <glyph glyph-name="arrowright" unicode="&#x2192;" 
d="M0 94h210q-18 17 -20 46q28 -35 66 -49q-39 -15 -66 -51q0 23 20 46h-210v8z" />
    <glyph glyph-name="arrowdown" unicode="&#x2193;" 
d="M132 218v-210q20 19 46 19q-36 -26 -50 -63q-14 37 -50 63q20 2 46 -19v210h8z" />
    <glyph glyph-name="uni2196" unicode="&#x2196;" 
d="M0 218l136 -40l-72 -19l189 -187l-5 -5l-192 190l-16 -75z" />
    <glyph glyph-name="uni2197" unicode="&#x2197;" 
d="M5 -33l-5 5l189 187l-72 19l136 40l-40 -134l-18 70z" />
    <glyph glyph-name="uni2198" unicode="&#x2198;" 
d="M253 -33l-136 38l72 18l-189 189l5 6l192 -192l16 75z" />
    <glyph glyph-name="uni2199" unicode="&#x2199;" 
d="M248 218l5 -6l-189 -189l72 -18l-136 -38l40 131l19 -69z" />
    <glyph glyph-name="element" unicode="&#x2208;" 
d="M207 24v-15h-92q-65 2 -66 78q1 77 66 78h92v-14h-94q-46 -3 -47 -56h136v-14h-136q0 -57 46 -57h95z" />
    <glyph glyph-name="product" unicode="&#x220f;" 
d="M203 161v-160q-1 -20 25 -19v-6h-79v6q26 -1 25 19v177h-92v-177q-1 -20 25 -19v-6h-79v6q26 -1 25 19v160q0 25 -24 25v6h198v-6q-24 0 -24 -25z" />
    <glyph glyph-name="summation" unicode="&#x2211;" 
d="M195 190l2 -40h-6q0 1 -1 4q-4 26 -38 25h-67l70 -92l-75 -87h95q24 -2 34 29h6q-1 -6 -4 -15q-5 -19 -7 -40q-2 0 -7 1q-8 2 -13 2h-128q-3 0 -8 -1h-7l89 100l-89 116q14 -2 27 -2h127z" />
    <glyph glyph-name="uni2215" unicode="&#x2215;" 
d="M177 176h14l-112 -177h-15z" />
    <glyph glyph-name="radical" unicode="&#x221a;" 
d="M124 0l128 218h4v-11l-136 -234h-6l-82 154l-29 -16l-3 9l47 26z" />
    <glyph glyph-name="proportional" unicode="&#x221d;" 
d="M47 82q3 46 42 48q27 0 41 -36q17 35 50 34q24 -1 27 -7q0 -5 -3 -5q-2 0 -7 1h-8q-33 3 -51 -41q18 -28 49 -27q4 0 10 1q4 1 6 1q6 0 6 -3q-7 -11 -29 -12q-33 0 -45 33q-16 -36 -45 -35q-41 2 -43 48zM55 80q1 -30 30 -31q22 0 38 35q2 3 3 5q-12 25 -37 25
q-32 -2 -34 -34z" />
    <glyph glyph-name="infinity" unicode="&#x221e;" 
d="M50 76q1 48 38 50q25 -1 35 -30q15 30 42 30q38 -3 41 -47q-1 -47 -38 -50q-25 1 -35 31q-16 -31 -43 -31q-37 3 -40 47zM200 80q-2 25 -26 26q-22 0 -36 -36q-1 -2 -1 -3q12 -14 32 -15q29 2 31 28zM56 75q1 -24 26 -25q23 -1 37 38q-11 14 -32 15q-29 -2 -31 -28z" />
    <glyph glyph-name="orthogonal" unicode="&#x221f;" 
d="M44 169v-158h168v8h-161v150h-7z" />
    <glyph glyph-name="angle" unicode="&#x2220;" 
d="M41 1l121 160l9 -6l-109 -144h153v-10h-174z" />
    <glyph glyph-name="uni2223" unicode="&#x2223;" 
d="M132 -36h-8v254h8v-254z" />
    <glyph glyph-name="uni2225" unicode="&#x2225;" 
d="M108 -30h-9l126 248h9zM31 -30h-9l126 248h9z" />
    <glyph glyph-name="logicaland" unicode="&#x2227;" 
d="M200 -6h-13l-56 184l-62 -182h-13l67 198h16z" />
    <glyph glyph-name="logicalor" unicode="&#x2228;" 
d="M69 192l59 -187l60 187h12l-64 -201h-16l-64 201h13z" />
    <glyph glyph-name="intersection" unicode="&#x2229;" 
d="M191 0v92q-1 57 -63 59q-62 -2 -63 -59v-92h-15v92q2 72 78 74q76 -2 78 -74v-92h-15z" />
    <glyph glyph-name="union" unicode="&#x222a;" 
d="M191 68v93h15v-91q-1 -72 -78 -73q-77 1 -78 73v91h15v-93q1 -57 63 -58q62 1 63 58z" />
    <glyph glyph-name="integral" unicode="&#x222b;" 
d="M122 35l3 84q3 57 26 58q8 0 8 -7q0 -5 -5 -5q-3 0 -6 4q-2 2 -3 2q-8 3 -11 -51l-3 -86q-2 -85 -27 -81q-7 0 -7 7q0 5 5 5q3 0 6 -4q1 -2 2 -2q10 -5 12 76z" />
    <glyph glyph-name="uni222E" unicode="&#x222e;" 
d="M133 89l-1 -48q20 3 21 24q-1 20 -20 24zM122 42l2 47q-19 -4 -20 -24q1 -19 18 -23zM134 120v-25q24 -5 25 -30q-2 -26 -28 -30v-1q-1 -34 -5 -54q-5 -27 -22 -27q-7 0 -7 7q0 5 5 5q3 0 6 -4q1 -2 2 -2q10 0 12 57v19q-23 6 -24 30q1 25 26 30l2 24q2 57 25 58
q8 0 8 -7q0 -5 -5 -5q-3 0 -6 4q-2 2 -3 2q-10 2 -11 -51z" />
    <glyph glyph-name="therefore" unicode="&#x2234;" 
d="M59 17q1 14 17 16q15 -1 16 -16q-1 -16 -16 -17q-16 1 -17 17zM164 17q1 15 16 16q16 -2 17 -16q-1 -16 -17 -17q-15 1 -16 17zM111 106q1 14 17 16q16 -2 17 -16q-2 -15 -17 -17q-15 2 -17 17z" />
    <glyph glyph-name="uni2235" unicode="&#x2235;" 
d="M59 105q2 15 17 17q14 -1 16 -17q-2 -16 -16 -17q-15 2 -17 17zM164 105q2 16 16 17q15 -2 17 -17q-2 -15 -17 -17q-14 1 -16 17zM111 17q2 15 17 17q15 -2 17 -17q-2 -15 -17 -17q-15 2 -17 17z" />
    <glyph glyph-name="uni2236" unicode="&#x2236;" 
d="M106 129q2 19 22 21q20 -2 22 -21q-2 -20 -22 -22q-20 2 -22 22zM106 48q2 19 22 21q20 -2 22 -21q-2 -20 -22 -22q-20 2 -22 22z" />
    <glyph glyph-name="uni2237" unicode="&#x2237;" 
d="M171 140q12 -1 13 -13q-2 -12 -13 -13q-11 1 -13 13q1 12 13 13zM171 49q11 -1 13 -12q-1 -12 -13 -13q-12 1 -13 13q2 11 13 12zM85 140q12 -1 13 -13q-2 -12 -13 -13q-11 1 -13 13q1 12 13 13zM85 49q11 -1 13 -12q-1 -12 -13 -13q-12 1 -13 13q2 11 13 12z" />
    <glyph glyph-name="uni223D" unicode="&#x223d;" 
d="M226 49h-11q-2 53 -40 55q-18 0 -43 -26q-28 -29 -50 -29q-50 0 -52 66h10q1 -54 40 -55q20 0 46 27q27 28 49 28q49 -2 51 -66z" />
    <glyph glyph-name="approxequal" unicode="&#x2248;" 
d="M212 118v-14q-22 -18 -42 -17q-16 0 -44 11q-26 10 -39 10q-20 0 -43 -19v13q23 19 42 18q16 0 44 -11q26 -10 39 -10q20 0 43 19zM212 80v-14q-22 -18 -42 -17q-16 0 -44 11q-26 9 -39 9q-20 0 -43 -19v14q22 18 42 17q16 0 44 -11q26 -10 39 -10q19 0 43 20z" />
    <glyph glyph-name="uni224C" unicode="&#x224c;" 
d="M228 12h-204v11h204v-11zM228 48h-204v11h204v-11zM226 87h-11q-2 53 -40 54q-18 0 -43 -26q-28 -28 -50 -28q-50 0 -52 65h10q1 -54 40 -55q20 0 46 27q27 28 49 28q48 -2 51 -65z" />
    <glyph glyph-name="uni2252" unicode="&#x2252;" 
d="M193 131v-23h-130v23h130zM193 79v-23h-130v23h130zM77 157q2 16 16 17q14 -1 16 -17q-2 -16 -16 -17q-14 1 -16 17zM145 29q3 16 16 17q15 -2 17 -17q-1 -16 -17 -17q-14 1 -16 17z" />
    <glyph glyph-name="notequal" unicode="&#x2260;" 
d="M101 57h-58v12h68l20 27h-88v12h97l45 59h13l-45 -59h60v-12h-69l-20 -27h89v-12h-99l-44 -58h-13z" />
    <glyph glyph-name="equivalence" unicode="&#x2261;" 
d="M212 111h-168v12h168v-12zM212 41h-168v12h168v-12zM212 76h-168v12h168v-12z" />
    <glyph glyph-name="lessequal" unicode="&#x2264;" 
d="M215 59v-16l-174 48v16l174 48v-15l-152 -41zM215 12v-13l-174 47v15z" />
    <glyph glyph-name="greaterequal" unicode="&#x2265;" 
d="M215 61v-15l-174 -47v13zM215 107v-16l-174 -48v16l152 40l-152 41v15z" />
    <glyph glyph-name="uni2266" unicode="&#x2266;" 
d="M43 110v13l170 43v-12l-148 -37v-1l148 -37v-12zM43 0v9h170v-9h-170zM43 37v11h170v-11h-170z" />
    <glyph glyph-name="uni2267" unicode="&#x2267;" 
d="M43 67v12l148 37v1l-148 37v12l170 -43v-13zM43 0v9h170v-9h-170zM43 37v11h170v-11h-170z" />
    <glyph glyph-name="uni226E" unicode="&#x226e;" 
d="M113 61l23 52l-78 -30zM213 21v-12l-94 38l-21 -48h-12l23 52l-66 26v11l99 39l16 40h12l-14 -34l57 23v-12l-63 -25l-27 -62z" />
    <glyph glyph-name="uni226F" unicode="&#x226f;" 
d="M98 -1h-12l15 34l-58 -24v13l64 25l26 62l-90 36v11l95 -37l20 48h12l-22 -53l65 -26v-11l-98 -39zM143 104l-22 -52l77 31z" />
    <glyph glyph-name="circleplus" unicode="&#x2295;" 
d="M122 13v70h-69v12h69v70h12v-70h69v-12h-69v-70h-12zM128 205q106 -10 116 -116q-10 -104 -116 -114q-106 10 -116 114q10 106 116 116zM128 195q-96 -9 -105 -106q9 -94 105 -103q96 9 105 103q-9 97 -105 106z" />
    <glyph glyph-name="uni2299" unicode="&#x2299;" 
d="M128 76q-13 2 -15 15q2 14 15 15q14 -1 15 -15q-1 -13 -15 -15zM128 9q75 7 82 82q-7 76 -82 83q-75 -7 -82 -83q7 -75 82 -82zM128 184q85 -8 93 -93q-8 -84 -93 -91q-85 7 -93 91q8 85 93 93z" />
    <glyph glyph-name="perpendicular" unicode="&#x22a5;" 
d="M52 11h70v150h12v-150h70v-10h-152v10z" />
    <glyph glyph-name="uni22BF" unicode="&#x22bf;" 
d="M235 -17h-203l203 214v-214zM227 -9v186l-176 -186h176z" />
    <glyph glyph-name="uni2312" unicode="&#x2312;" 
d="M234 58l-1 -2q-4 0 -14 11q-39 43 -88 45h-7q-49 -2 -87 -45q-10 -11 -14 -11l-1 2q36 72 105 72q73 1 107 -72z" />
    <glyph glyph-name="uni2460" unicode="&#x2460;" 
d="M128 219q115 -11 126 -126q-11 -112 -126 -123q-116 10 -126 123q11 116 126 126zM128 214q-111 -10 -121 -121q10 -108 121 -118q111 10 121 118q-10 111 -121 121zM176 12v-7h-96v7q35 -3 31 25v99q1 17 -10 17q-5 0 -21 -6v7l64 28h4v-146q-4 -26 28 -24z" />
    <glyph glyph-name="uni2461" unicode="&#x2461;" 
d="M128 219q115 -11 126 -126q-11 -112 -126 -123q-116 10 -126 123q11 116 126 126zM128 214q-111 -10 -121 -121q10 -108 121 -118q111 10 121 118q-10 111 -121 121zM187 59l-12 -54h-106v6q77 79 72 109q-3 31 -30 32q-21 0 -31 -23h-8q20 53 57 53q46 -4 47 -48
q1 -26 -29 -55l-42 -40h39q33 -3 37 20h6z" />
    <glyph glyph-name="uni2462" unicode="&#x2462;" 
d="M128 219q115 -11 126 -126q-11 -112 -126 -123q-116 10 -126 123q11 116 126 126zM128 214q-111 -10 -121 -121q10 -108 121 -118q111 10 121 118q-10 111 -121 121zM81 141l-5 3q20 38 57 39q42 -1 43 -34q1 -22 -21 -33q30 -13 31 -45q-6 -62 -77 -67q-38 1 -39 23
q1 13 16 14q12 0 26 -14q12 -11 19 -11q25 2 26 31q0 37 -52 51v5q33 7 33 33q-1 26 -27 27q-16 0 -29 -20z" />
    <glyph glyph-name="uni2463" unicode="&#x2463;" 
d="M128 219q115 -11 126 -126q-11 -112 -126 -123q-116 10 -126 123q11 116 126 126zM128 214q-111 -10 -121 -121q10 -108 121 -118q111 10 121 118q-10 111 -121 121zM159 71h16v-29h-16v-37h-37v37h-64v29q18 29 63 88q12 16 17 23h21v-111zM122 71v75l-53 -75h53z" />
    <glyph glyph-name="uni2464" unicode="&#x2464;" 
d="M128 219q115 -11 126 -126q-11 -112 -126 -123q-116 10 -126 123q11 116 126 126zM128 214q-111 -10 -121 -121q10 -108 121 -118q111 10 121 118q-10 111 -121 121zM103 148l-5 -20q40 -2 56 -13q25 -16 26 -47q-4 -59 -73 -62q-34 2 -36 22q1 15 16 16q9 0 25 -11
q15 -11 23 -11q25 2 26 26q-1 23 -28 34q-15 7 -48 10q-5 1 -7 1l25 88h82l-11 -33h-71z" />
    <glyph glyph-name="uni2465" unicode="&#x2465;" 
d="M128 219q115 -11 126 -126q-11 -112 -126 -123q-116 10 -126 123q11 116 126 126zM128 214q-111 -10 -121 -121q10 -108 121 -118q111 10 121 118q-10 111 -121 121zM146 47q1 59 -22 56q-8 0 -11 -3q-2 -15 -2 -23q-2 -71 20 -66q17 -2 15 36zM184 183v-6
q-55 -10 -68 -66q1 0 2 1q9 3 21 3q45 -3 46 -54q-7 -55 -56 -57q-57 3 -58 76q8 89 113 103z" />
    <glyph glyph-name="uni2466" unicode="&#x2466;" 
d="M128 219q115 -11 126 -126q-11 -112 -126 -123q-116 10 -126 123q11 116 126 126zM128 214q-111 -10 -121 -121q10 -108 121 -118q111 10 121 118q-10 111 -121 121zM187 180l-60 -173h-25l52 138h-53q-20 1 -25 -22h-7l11 57h107z" />
    <glyph glyph-name="uni2467" unicode="&#x2467;" 
d="M128 219q115 -11 126 -126q-11 -112 -126 -123q-116 10 -126 123q11 116 126 126zM128 214q-111 -10 -121 -121q10 -108 121 -118q111 10 121 118q-10 111 -121 121zM102 47q2 -33 24 -35q23 0 23 30q2 23 -34 44q-1 -1 -2 -3q-12 -18 -11 -36zM107 155q1 -23 33 -40
q12 13 11 30q-1 31 -23 31q-19 -1 -21 -21zM132 183q46 -1 49 -37q0 -26 -35 -35q39 -23 39 -55q-3 -50 -60 -52q-51 3 -54 43q0 33 39 43q-36 20 -36 48q2 44 58 45z" />
    <glyph glyph-name="uni2468" unicode="&#x2468;" 
d="M128 219q115 -11 126 -126q-11 -112 -126 -123q-116 10 -126 123q11 116 126 126zM128 214q-111 -10 -121 -121q10 -108 121 -118q111 10 121 118q-10 111 -121 121zM72 4v6q53 11 69 67q-6 -3 -12 -4q-4 -1 -12 -1q-45 3 -46 54q6 55 55 57q58 -3 59 -76
q-7 -88 -113 -103zM110 140q-1 -59 21 -56q10 0 12 3q0 2 1 9q1 11 1 14q2 72 -20 66q-17 2 -15 -36z" />
    <glyph glyph-name="uni2469" unicode="&#x2469;" 
d="M128 219q115 -11 126 -126q-11 -112 -126 -123q-116 10 -126 123q11 116 126 126zM68 37v99q0 18 -9 18q-4 0 -18 -7v7l55 28h4v-147q-3 -26 23 -24v-6h-78q36 -30 83 -30q111 10 121 118q-10 111 -121 121q-111 -10 -121 -121q1 -50 35 -85v3q29 -2 26 26zM184 64v59
q0 54 -14 53q-15 1 -14 -53v-59q-1 -56 14 -53q9 0 11 14q3 18 3 39zM123 92q2 84 47 92q44 -7 46 -92q-3 -83 -46 -88q-44 7 -47 88z" />
    <glyph glyph-name="uni2474" unicode="&#x2474;" 
d="M189 -15v7q40 14 38 102q2 86 -38 103v7q63 -35 66 -108q-1 -76 -66 -111zM67 204v-7q-40 -17 -38 -104q-2 -86 38 -101v-7q-64 33 -67 106q1 76 67 113zM176 12v-7h-96v7q35 -3 31 25v99q1 17 -10 17q-5 0 -21 -6v7l64 28h4v-146q-4 -26 28 -24z" />
    <glyph glyph-name="uni2475" unicode="&#x2475;" 
d="M189 -15v7q40 14 38 102q2 86 -38 103v7q63 -35 66 -108q-1 -76 -66 -111zM67 204v-7q-40 -17 -38 -104q-2 -86 38 -101v-7q-64 33 -67 106q1 76 67 113zM187 59l-12 -54h-106v6q77 79 72 109q-3 31 -30 32q-21 0 -31 -23h-8q20 53 57 53q46 -4 47 -48q1 -26 -29 -55
l-42 -40h39q33 -3 37 20h6z" />
    <glyph glyph-name="uni2476" unicode="&#x2476;" 
d="M189 -15v7q40 14 38 102q2 86 -38 103v7q63 -35 66 -108q-1 -76 -66 -111zM67 204v-7q-40 -17 -38 -104q-2 -86 38 -101v-7q-64 33 -67 106q1 76 67 113zM81 141l-5 3q20 38 57 39q42 -1 43 -34q1 -22 -21 -33q30 -13 31 -45q-6 -62 -77 -67q-38 1 -39 23q1 13 16 14
q12 0 26 -14q12 -11 19 -11q25 2 26 31q0 37 -52 51v5q33 7 33 33q-1 26 -27 27q-16 0 -29 -20z" />
    <glyph glyph-name="uni2477" unicode="&#x2477;" 
d="M189 -15v7q40 14 38 102q2 86 -38 103v7q63 -35 66 -108q-1 -76 -66 -111zM67 204v-7q-40 -17 -38 -104q-2 -86 38 -101v-7q-64 33 -67 106q1 76 67 113zM159 71h16v-29h-16v-37h-37v37h-64v29q18 29 63 88q12 16 17 23h21v-111zM122 71v75l-53 -75h53z" />
    <glyph glyph-name="uni2478" unicode="&#x2478;" 
d="M189 -15v7q40 14 38 102q2 86 -38 103v7q63 -35 66 -108q-1 -76 -66 -111zM67 204v-7q-40 -17 -38 -104q-2 -86 38 -101v-7q-64 33 -67 106q1 76 67 113zM103 148l-5 -20q40 -2 56 -13q25 -16 26 -47q-4 -59 -73 -62q-34 2 -36 22q1 15 16 16q9 0 25 -11q15 -11 23 -11
q25 2 26 26q-1 23 -28 34q-15 7 -48 10q-5 1 -7 1l25 88h82l-11 -33h-71z" />
    <glyph glyph-name="uni2479" unicode="&#x2479;" 
d="M189 -15v7q40 14 38 102q2 86 -38 103v7q63 -35 66 -108q-1 -76 -66 -111zM67 204v-7q-40 -17 -38 -104q-2 -86 38 -101v-7q-64 33 -67 106q1 76 67 113zM146 47q1 59 -22 56q-8 0 -11 -3q-2 -15 -2 -23q-2 -71 20 -66q17 -2 15 36zM184 183v-6q-55 -10 -68 -66q1 0 2 1
q9 3 21 3q45 -3 46 -54q-7 -55 -56 -57q-57 3 -58 76q8 89 113 103z" />
    <glyph glyph-name="uni247A" unicode="&#x247a;" 
d="M189 -15v7q40 14 38 102q2 86 -38 103v7q63 -35 66 -108q-1 -76 -66 -111zM67 204v-7q-40 -17 -38 -104q-2 -86 38 -101v-7q-64 33 -67 106q1 76 67 113zM187 180l-60 -173h-25l52 138h-53q-20 1 -25 -22h-7l11 57h107z" />
    <glyph glyph-name="uni247B" unicode="&#x247b;" 
d="M189 -15v7q40 14 38 102q2 86 -38 103v7q63 -35 66 -108q-1 -76 -66 -111zM67 204v-7q-40 -17 -38 -104q-2 -86 38 -101v-7q-64 33 -67 106q1 76 67 113zM102 47q2 -33 24 -35q23 0 23 30q2 23 -34 44q-1 -1 -2 -3q-12 -18 -11 -36zM107 155q1 -23 33 -40q12 13 11 30
q-1 31 -23 31q-19 -1 -21 -21zM132 183q46 -1 49 -37q0 -26 -35 -35q39 -23 39 -55q-3 -50 -60 -52q-51 3 -54 43q0 33 39 43q-36 20 -36 48q2 44 58 45z" />
    <glyph glyph-name="uni247C" unicode="&#x247c;" 
d="M189 -15v7q40 14 38 102q2 86 -38 103v7q63 -35 66 -108q-1 -76 -66 -111zM67 204v-7q-40 -17 -38 -104q-2 -86 38 -101v-7q-64 33 -67 106q1 76 67 113zM72 4v6q53 11 69 67q-6 -3 -12 -4q-4 -1 -12 -1q-45 3 -46 54q6 55 55 57q58 -3 59 -76q-7 -88 -113 -103zM110 140
q-1 -59 21 -56q10 0 12 3q0 2 1 9q1 11 1 14q2 72 -20 66q-17 2 -15 -36z" />
    <glyph glyph-name="uni247D" unicode="&#x247d;" 
d="M189 -15v7q40 14 38 102q2 86 -38 103v7q64 -35 67 -108q-1 -76 -67 -111zM68 37v99q0 18 -8 18q-6 -1 -18 -7v7l55 28h3v-147q-3 -26 24 -24v-6h-75q4 -4 15 -11q2 -1 3 -2v-7q-64 33 -67 106q1 76 67 113v-7q-40 -17 -38 -104q0 -59 15 -82q27 -1 24 26zM184 64v59
q1 55 -14 53q-15 1 -14 -53v-59q0 -55 14 -53q9 0 11 14q3 18 3 39zM124 92q2 84 46 92q45 -8 47 -92q-4 -82 -47 -88q-43 6 -46 88z" />
    <glyph glyph-name="uni247E" unicode="&#x247e;" 
d="M189 197v7q63 -35 66 -108q-1 -76 -66 -111v7q1 1 3 2q8 5 15 11h-78v6q29 -2 26 26v99q0 18 -9 18q-4 0 -18 -7v7l55 28h4v-147q-3 -26 23 -24v-2q17 21 17 85q2 86 -38 103zM72 37v99q0 18 -8 18q-6 -1 -18 -7v7l55 28h3v-147q-3 -26 24 -24v-6h-80q5 -4 14 -10
q3 -2 5 -3v-7q-64 33 -67 106q1 76 67 113v-7q-40 -17 -38 -104q0 -63 17 -85v3q29 -2 26 26z" />
    <glyph glyph-name="uni247F" unicode="&#x247f;" 
d="M189 -15v7q40 14 38 102q2 86 -38 103v7q63 -35 66 -108q-1 -76 -66 -111zM128 129h-6q14 52 45 53q37 -4 38 -48q1 -26 -23 -55l-34 -40h31q26 -3 30 20h5l-9 -54h-156q4 -4 15 -11q2 -1 3 -2v-7q-64 33 -67 106q1 76 67 113v-7q-40 -17 -38 -104q0 -60 15 -82
q28 -2 24 26v99q0 18 -8 18q-6 -1 -18 -7v7l55 28h3v-147q-2 -25 19 -24q62 79 58 109q-2 32 -24 33q-17 -1 -25 -24z" />
    <glyph glyph-name="uni2480" unicode="&#x2480;" 
d="M189 -15v7q40 14 38 102q2 86 -38 103v7q63 -35 66 -108q-1 -76 -66 -111zM69 37v99q0 18 -9 18q-4 0 -18 -7v7l55 28h4v-147q-3 -26 22 -24v-6h-75q5 -4 14 -10q3 -2 5 -3v-7q-64 33 -67 106q1 76 67 113v-7q-40 -17 -38 -104q0 -60 15 -82q28 -2 25 26zM127 141l-4 3
q16 39 47 40q34 -1 35 -35q1 -22 -17 -33q25 -12 26 -45q-5 -62 -63 -67q-31 1 -32 23q1 13 13 14q10 0 22 -14q9 -11 15 -11q20 2 21 31q1 36 -43 52v4q28 9 28 33q-1 26 -22 27q-13 0 -24 -19q-1 -2 -2 -3z" />
    <glyph glyph-name="uni2481" unicode="&#x2481;" 
d="M189 -15v7q40 14 38 102q2 86 -38 103v7q63 -35 66 -108q-1 -76 -66 -111zM69 38v98q1 18 -9 18q-2 0 -13 -4q-3 -1 -5 -2v7l55 28h4v-147q-3 -26 23 -24v-6h-76q4 -5 14 -11q3 -2 5 -3v-7q-64 33 -67 106q1 76 67 113v-7q-40 -17 -38 -104q0 -60 15 -81q28 -2 25 26z
M200 70h14v-28h-14v-37h-32v37h-54v29q23 41 68 111h18v-112zM169 70v76h-1l-45 -76h46z" />
    <glyph glyph-name="uni2482" unicode="&#x2482;" 
d="M69 37v99q0 18 -8 18q-6 -1 -18 -7v7l55 28h3v-147q-3 -26 24 -24v-6h-77q5 -4 14 -10q3 -2 5 -3v-7q-64 33 -67 106q1 76 67 113v-7q-40 -17 -38 -104q0 -60 15 -82q28 -2 25 26zM204 149h-56l-4 -21q32 -2 44 -13q20 -16 21 -47q-4 -59 -57 -62q-28 1 -29 22
q1 15 12 16q7 0 20 -12q12 -11 18 -11q20 3 21 27q-1 23 -22 34q-12 7 -37 10q-4 1 -6 1l19 88h60q-9 9 -19 16v7q63 -35 66 -108q-1 -76 -66 -111v7q40 14 38 102q0 57 -15 82z" />
    <glyph glyph-name="uni2483" unicode="&#x2483;" 
d="M189 197v7q63 -35 66 -108q-1 -76 -66 -111v7q40 14 38 102q0 60 -16 82q-43 -11 -54 -65q1 0 2 1q7 3 17 3q37 -3 38 -54q-5 -55 -46 -57q-47 4 -48 76q5 86 87 103q-7 8 -18 14zM68 37v99q0 18 -8 18q-6 -1 -18 -7v7l55 28h3v-147q-3 -26 24 -24v-6h-75q4 -4 15 -11
q2 -1 3 -2v-7q-64 33 -67 106q1 76 67 113v-7q-40 -17 -38 -104q0 -59 15 -82q28 -2 24 26zM182 47q1 58 -18 56q-7 0 -9 -3t-2 -23q-2 -73 16 -67q15 -2 13 37z" />
    <glyph glyph-name="uni2484" unicode="&#x2484;" 
d="M189 197v7q63 -35 66 -108q-1 -76 -66 -111v7q40 14 38 102q0 60 -15 81l-49 -168h-20l43 138h-45q-16 1 -21 -22h-5l9 57h85q-8 10 -20 17zM69 37v99q0 18 -9 18q-4 0 -18 -7v7l55 28h4v-146q-3 -27 23 -24v-7h-76q5 -4 14 -10q3 -2 5 -3v-7q-64 33 -67 106q1 76 67 113
v-7q-40 -17 -38 -104q0 -60 15 -81q28 -2 25 25z" />
    <glyph glyph-name="uni2485" unicode="&#x2485;" 
d="M189 -15v7q40 14 38 102q2 86 -38 103v7q63 -35 66 -108q-1 -76 -66 -111zM69 37v99q0 18 -9 18q-4 0 -18 -7v7l55 28h4v-147q-3 -26 23 -24v-6h-76q5 -4 14 -10q3 -2 5 -3v-7q-64 33 -67 106q1 76 67 113v-7q-40 -17 -38 -104q0 -60 15 -82q28 -2 25 26zM141 47
q1 -34 22 -35q19 0 19 30q1 22 -29 44q-13 -19 -12 -39zM146 155q1 -24 29 -40q10 13 9 30q-1 30 -20 31q-17 -1 -18 -21zM167 184q40 -1 43 -38q0 -25 -30 -35q33 -23 33 -55q-2 -50 -52 -52q-45 3 -47 43q0 32 34 43q-31 20 -31 48q2 45 50 46z" />
    <glyph glyph-name="uni2486" unicode="&#x2486;" 
d="M189 -15v7q40 14 38 102q2 86 -38 103v7q63 -35 66 -108q-1 -76 -66 -111zM121 4v1h-73q5 -4 14 -10q3 -2 5 -3v-7q-64 33 -67 106q1 76 67 113v-7q-40 -17 -38 -104q0 -61 15 -81q28 -2 24 25v99q1 18 -8 18q-6 -1 -18 -7v7l55 28h3v-146q-3 -27 24 -24v-1q41 11 53 66
q-4 -3 -9 -4q-4 -1 -10 -1q-37 3 -38 54q5 56 45 58q48 -4 49 -77q-7 -89 -93 -103zM152 140q-1 -59 17 -56q9 0 10 3q0 2 1 9q1 11 1 14q1 72 -17 67q-14 2 -12 -37z" />
    <glyph glyph-name="uni2487" unicode="&#x2487;" 
d="M189 -15v7q40 14 38 102q2 86 -38 103v7q63 -35 66 -108q-1 -76 -66 -111zM191 64v59q1 55 -14 53q-15 1 -14 -53v-59q0 -55 14 -53q9 0 11 14q3 18 3 39zM134 55l-8 -50h-77q4 -4 15 -11q2 -1 3 -2v-7q-64 33 -67 106q1 76 67 113v-7q-40 -17 -38 -104q0 -55 13 -79
q60 75 57 106q-3 32 -25 33q-16 -1 -25 -24h-5q14 52 45 53q37 -4 38 -48q1 -26 -24 -55l-33 -40h31q26 -3 30 20h3q-3 15 -3 33q2 85 46 92q44 -7 46 -92q-3 -83 -46 -88q-29 2 -43 51z" />
    <glyph glyph-name="uni2488" unicode="&#x2488;" 
d="M137 12v-7h-96v7q34 -3 30 25v99q1 17 -10 17q-3 0 -21 -6v7l65 28h4v-146q-4 -27 28 -24zM173 25q2 20 21 22q20 -2 22 -22q-2 -20 -22 -22q-19 2 -21 22z" />
    <glyph glyph-name="uni2489" unicode="&#x2489;" 
d="M153 59l-12 -54h-106v6q77 79 72 109q-3 31 -30 32q-21 0 -31 -23h-8q20 53 57 53q46 -4 47 -48q1 -26 -29 -55l-42 -40h39q33 -3 37 20h6zM178 25q2 20 22 22q19 -2 21 -22q-2 -20 -21 -22q-20 2 -22 22z" />
    <glyph glyph-name="uni248A" unicode="&#x248a;" 
d="M46 141l-5 3q20 38 57 39q42 -1 43 -34q1 -22 -21 -33q30 -13 31 -45q-6 -62 -77 -67q-38 1 -39 23q1 13 16 14q12 0 26 -14q12 -11 19 -11q25 1 26 31q0 37 -52 51v5q34 8 34 33q-1 26 -27 27q-17 0 -30 -21zM177 25q3 20 22 22q20 -2 22 -22q-2 -20 -22 -22
q-20 2 -22 22z" />
    <glyph glyph-name="uni248B" unicode="&#x248b;" 
d="M131 71h16v-29h-16v-37h-38v37h-63v29q18 29 63 88q12 16 17 23h21v-111zM94 71v75h-1l-53 -75h54zM183 25q2 20 21 22q20 -2 22 -22q-2 -20 -22 -22q-19 2 -21 22z" />
    <glyph glyph-name="uni248C" unicode="&#x248c;" 
d="M68 148l-6 -20q41 -2 57 -13q25 -16 26 -47q-4 -59 -73 -62q-34 1 -36 22q1 16 15 16q9 0 26 -11q15 -11 23 -11q24 2 25 26q-1 23 -27 34q-15 7 -47 10q-5 1 -8 1l25 88h82l-11 -33h-71zM177 25q2 20 22 22q19 -2 21 -22q-2 -20 -21 -22q-20 2 -22 22z" />
    <glyph glyph-name="uni248D" unicode="&#x248d;" 
d="M111 47q1 59 -22 56q-8 0 -11 -3q-2 -15 -2 -23q-2 -71 19 -66q18 -2 16 36zM149 183v-6q-55 -10 -68 -66q1 0 2 1q9 3 21 3q45 -3 46 -54q-7 -55 -56 -57q-57 3 -58 76q8 89 113 103zM177 25q2 20 22 22q19 -2 21 -22q-2 -20 -21 -22q-20 2 -22 22z" />
    <glyph glyph-name="uni248E" unicode="&#x248e;" 
d="M153 180l-61 -173h-24l51 138h-53q-19 1 -25 -22h-6l11 57h107zM178 25q2 20 21 22q20 -2 22 -22q-2 -20 -22 -22q-19 2 -21 22z" />
    <glyph glyph-name="uni248F" unicode="&#x248f;" 
d="M67 47q1 -34 24 -35q23 0 23 30q2 22 -34 44q-14 -18 -13 -39zM72 155q1 -24 33 -40q11 12 10 30q0 31 -22 31q-19 -1 -21 -21zM97 183q46 -1 49 -37q0 -25 -35 -35q39 -23 39 -55q-3 -50 -61 -52q-50 3 -53 43q0 32 38 43q-35 20 -35 48q2 44 58 45zM177 25q2 20 21 22
q20 -2 22 -22q-2 -20 -22 -22q-19 2 -21 22z" />
    <glyph glyph-name="uni2490" unicode="&#x2490;" 
d="M37 4v6q53 11 68 67q-5 -3 -11 -4q-4 -1 -12 -1q-45 3 -46 54q6 55 55 57q58 -4 59 -76q-7 -88 -113 -103zM74 140q-1 -58 22 -56q10 0 12 3q0 2 1 9q1 11 1 14q2 72 -20 66q-18 2 -16 -36zM177 25q2 20 22 22q19 -2 21 -22q-2 -20 -21 -22q-20 2 -22 22z" />
    <glyph glyph-name="uni2491" unicode="&#x2491;" 
d="M203 25q2 20 22 22q19 -2 21 -22q-2 -20 -21 -22q-20 2 -22 22zM174 64v59q0 54 -18 53q-18 1 -17 -53v-59q-1 -56 18 -53q10 0 13 14q4 14 4 39zM99 92q2 84 58 91q54 -7 57 -91q-5 -83 -58 -88q-53 6 -57 88zM106 12v-7h-96v7q35 -3 31 25v99q1 17 -10 17q-3 0 -16 -4
q-3 -1 -5 -2v7l64 28h5v-146q-4 -27 27 -24z" />
    <glyph glyph-name="uni2492" unicode="&#x2492;" 
d="M106 12v-7h-96v7q35 -3 31 25v99q1 17 -10 17q-3 0 -16 -4q-3 -1 -5 -2v7l64 28h5v-146q-4 -27 27 -24zM207 12v-7h-96v7q35 -3 30 25v99q1 17 -10 17q-3 0 -21 -6v7l65 28h4v-146q-4 -26 28 -24zM203 25q2 20 22 22q19 -2 21 -22q-2 -20 -21 -22q-20 2 -22 22z" />
    <glyph glyph-name="uni2493" unicode="&#x2493;" 
d="M100 129h-7q18 52 56 53q47 -4 48 -48q1 -26 -30 -55l-41 -40h39q32 -3 36 20h6l-11 -54h-186v7q35 -3 31 25v99q1 17 -10 17q-3 0 -16 -4q-3 -1 -5 -2v7l64 28h5v-146q-1 -21 12 -23q75 77 71 107q-3 31 -31 32q-20 0 -31 -23zM203 25q2 20 22 22q19 -2 21 -22
q-2 -20 -21 -22q-20 2 -22 22z" />
    <glyph glyph-name="uni2494" unicode="&#x2494;" 
d="M106 12v-7h-96v7q35 -3 31 25v99q1 17 -10 17q-3 0 -16 -4q-3 -1 -5 -2v7l64 28h5v-146q-4 -27 27 -24zM203 25q2 20 22 22q19 -2 21 -22q-2 -20 -21 -22q-20 2 -22 22zM110 141l-6 3q21 38 58 39q42 -1 43 -34q1 -22 -22 -33q31 -13 32 -45q-6 -63 -78 -67q-37 1 -38 23
q1 13 16 14q11 0 26 -14q12 -11 19 -11q24 1 25 31q0 36 -51 51v5q33 8 33 33q-1 26 -27 27q-19 0 -30 -22z" />
    <glyph glyph-name="uni2495" unicode="&#x2495;" 
d="M106 12v-7h-96v7q35 -3 31 25v99q1 17 -10 17q-3 0 -16 -4q-3 -1 -5 -2v7l64 28h5v-146q-4 -27 27 -24zM203 25q2 20 22 22q19 -2 21 -22q-2 -20 -21 -22q-20 2 -22 22zM194 71h16v-29h-16v-37h-37v37h-64v29q18 29 63 88q12 16 17 23h21v-111zM157 71v75l-53 -75h53z
" />
    <glyph glyph-name="uni2496" unicode="&#x2496;" 
d="M106 12v-7h-96v7q35 -3 31 25v99q1 17 -10 17q-3 0 -16 -4q-3 -1 -5 -2v7l64 28h5v-146q-4 -27 27 -24zM135 148l-6 -20q40 -2 57 -13q25 -16 26 -47q-4 -59 -73 -62q-35 1 -37 22q1 15 16 16q9 0 26 -11q15 -11 23 -11q24 2 25 26q-1 22 -27 34q-15 7 -47 10q-5 1 -8 1
l25 88h82l-11 -33h-71zM203 25q2 20 22 22q19 -2 21 -22q-2 -20 -21 -22q-20 2 -22 22z" />
    <glyph glyph-name="uni2497" unicode="&#x2497;" 
d="M106 12v-7h-96v7q35 -3 31 25v99q1 17 -10 17q-3 0 -16 -4q-3 -1 -5 -2v7l64 28h5v-146q-4 -27 27 -24zM203 25q2 20 22 22q19 -2 21 -22q-2 -20 -21 -22q-20 2 -22 22zM169 47q1 59 -22 56q-9 0 -11 -3q-2 -6 -3 -23q-2 -71 20 -66q18 -2 16 36zM206 183v-6
q-54 -10 -68 -66h1q10 4 22 4q46 -3 47 -54q-7 -55 -56 -57q-58 4 -59 76q8 89 113 103z" />
    <glyph glyph-name="uni2498" unicode="&#x2498;" 
d="M106 12v-7h-96v7q35 -3 31 25v99q1 17 -10 17q-3 0 -16 -4q-3 -1 -5 -2v7l64 28h5v-146q-4 -27 27 -24zM203 25q2 20 22 22q19 -2 21 -22q-2 -20 -21 -22q-20 2 -22 22zM228 180l-60 -173h-25l52 138h-53q-20 1 -26 -22h-6l11 57h107z" />
    <glyph glyph-name="uni2499" unicode="&#x2499;" 
d="M123 47q1 -34 24 -35q23 0 23 30q2 22 -34 44q-14 -18 -13 -39zM127 155q1 -23 34 -40q11 12 10 30q-1 31 -23 31q-19 -2 -21 -21zM153 183q46 -1 49 -37q0 -25 -35 -35q38 -23 38 -55q-2 -50 -60 -52q-50 3 -53 43q0 32 38 43q-36 21 -36 48q3 44 59 45zM106 12v-7h-96
v7q35 -3 31 25v99q1 17 -10 17q-3 0 -16 -4q-3 -1 -5 -2v7l64 28h5v-146q-4 -27 27 -24zM203 25q2 20 22 22q19 -2 21 -22q-2 -20 -21 -22q-20 2 -22 22z" />
    <glyph glyph-name="uni249A" unicode="&#x249a;" 
d="M106 12v-7h-96v7q35 -3 31 25v99q1 17 -10 17q-3 0 -16 -4q-3 -1 -5 -2v7l64 28h5v-146q-4 -27 27 -24zM203 25q2 20 22 22q19 -2 21 -22q-2 -20 -21 -22q-20 2 -22 22zM114 4v6q53 11 69 67q-6 -3 -12 -4q-4 -1 -12 -1q-45 3 -46 54q6 55 55 57q58 -4 59 -76
q-7 -88 -113 -103zM152 140q-1 -59 21 -56q10 0 12 3q0 2 1 9q1 11 1 14q2 72 -20 66q-17 2 -15 -36z" />
    <glyph glyph-name="uni249B" unicode="&#x249b;" 
d="M212 25q3 20 22 22q20 -2 22 -22q-2 -20 -22 -22q-20 2 -22 22zM186 64v59q0 54 -18 53q-18 1 -17 -53v-59q-1 -55 17 -53q11 0 14 14v2q4 21 4 37zM116 51l-9 -46h-107v6q78 79 73 109q-3 31 -31 32q-21 0 -31 -23h-7q18 52 56 53q47 -4 48 -48q1 -26 -30 -55l-41 -40
h39q32 -3 36 20h2q-3 17 -4 33q2 83 58 91q55 -8 58 -91q-5 -83 -58 -88q-35 1 -52 47z" />
    <glyph glyph-name="SF100000" unicode="&#x2500;" 
d="M0 96h256v-13h-256v13z" />
    <glyph glyph-name="uni2501" unicode="&#x2501;" 
d="M0 104h256v-29h-256v29z" />
    <glyph glyph-name="SF110000" unicode="&#x2502;" 
d="M121 218v-254h13v254h-13z" />
    <glyph glyph-name="uni2503" unicode="&#x2503;" 
d="M112 218v-254h29v254h-29z" />
    <glyph glyph-name="uni2504" unicode="&#x2504;" 
d="M14 96h56v-13h-56v13zM100 96h56v-13h-56v13zM186 96h56v-13h-56v13z" />
    <glyph glyph-name="uni2505" unicode="&#x2505;" 
d="M14 104h56v-29h-56v29zM100 104h56v-29h-56v29zM186 104h56v-29h-56v29z" />
    <glyph glyph-name="uni2506" unicode="&#x2506;" 
d="M120 204h13v-57h-13v57zM133 118v-57h-13v57h13zM133 32v-55h-13v55h13z" />
    <glyph glyph-name="uni2507" unicode="&#x2507;" 
d="M141 204v-57h-29v57h29zM141 118v-57h-29v57h29zM141 32v-55h-29v55h29z" />
    <glyph glyph-name="uni2508" unicode="&#x2508;" 
d="M12 96h40v-13h-40v13zM76 96h40v-13h-40v13zM140 96h40v-13h-40v13zM204 96h40v-13h-40v13z" />
    <glyph glyph-name="uni2509" unicode="&#x2509;" 
d="M12 104h40v-29h-40v29zM76 104h40v-29h-40v29zM140 104h40v-29h-40v29zM204 104h40v-29h-40v29z" />
    <glyph glyph-name="uni250A" unicode="&#x250a;" 
d="M133 206v-40h-13v40h13zM133 142v-40h-13v40h13zM133 78v-40h-13v40h13zM133 14v-38h-13v38h13z" />
    <glyph glyph-name="uni250B" unicode="&#x250b;" 
d="M141 206v-40h-29v40h29zM141 142v-40h-29v40h29zM141 78v-40h-29v40h29zM141 14v-38h-29v38h29z" />
    <glyph glyph-name="SF010000" unicode="&#x250c;" 
d="M256 96v-13h-122v-119h-13v132h135z" />
    <glyph glyph-name="uni250D" unicode="&#x250d;" 
d="M256 104v-29h-122v-111h-13v140h135z" />
    <glyph glyph-name="uni250E" unicode="&#x250e;" 
d="M256 96v-13h-114v-119h-29v132h143z" />
    <glyph glyph-name="uni250F" unicode="&#x250f;" 
d="M256 104v-29h-114v-111h-29v140h143z" />
    <glyph glyph-name="SF030000" unicode="&#x2510;" 
d="M0 83v13h134v-132h-13v119h-121z" />
    <glyph glyph-name="uni2511" unicode="&#x2511;" 
d="M0 104h134v-140h-13v111h-121v29z" />
    <glyph glyph-name="uni2512" unicode="&#x2512;" 
d="M0 96h142v-132h-29v119h-113v13z" />
    <glyph glyph-name="uni2513" unicode="&#x2513;" 
d="M0 104h142v-140h-29v111h-113v29z" />
    <glyph glyph-name="SF020000" unicode="&#x2514;" 
d="M134 218v-122h122v-13h-135v135h13z" />
    <glyph glyph-name="uni2515" unicode="&#x2515;" 
d="M134 218v-114h122v-29h-135v143h13z" />
    <glyph glyph-name="uni2516" unicode="&#x2516;" 
d="M142 218v-122h114v-13h-143v135h29z" />
    <glyph glyph-name="uni2517" unicode="&#x2517;" 
d="M142 218v-114h114v-29h-143v143h29z" />
    <glyph glyph-name="SF040000" unicode="&#x2518;" 
d="M0 96h121v122h13v-135h-134v13z" />
    <glyph glyph-name="uni2519" unicode="&#x2519;" 
d="M0 104h121v114h13v-143h-134v29z" />
    <glyph glyph-name="uni251A" unicode="&#x251a;" 
d="M0 96h113v122h29v-135h-142v13z" />
    <glyph glyph-name="uni251B" unicode="&#x251b;" 
d="M0 104h113v114h29v-143h-142v29z" />
    <glyph glyph-name="SF080000" unicode="&#x251c;" 
d="M134 218v-122h122v-13h-122v-119h-13v254h13z" />
    <glyph glyph-name="uni251D" unicode="&#x251d;" 
d="M134 218v-114h122v-29h-122v-111h-13v254h13z" />
    <glyph glyph-name="uni251E" unicode="&#x251e;" 
d="M142 218v-122h114v-13h-122v-119h-13v127h-8v127h29z" />
    <glyph glyph-name="uni251F" unicode="&#x251f;" 
d="M134 218v-122h122v-13h-114v-119h-29v124h8v130h13z" />
    <glyph glyph-name="uni2520" unicode="&#x2520;" 
d="M142 218v-122h114v-13h-114v-119h-29v254h29z" />
    <glyph glyph-name="uni2521" unicode="&#x2521;" 
d="M142 218v-114h114v-29h-122v-111h-13v111h-8v143h29z" />
    <glyph glyph-name="uni2522" unicode="&#x2522;" 
d="M134 218v-114h122v-29h-114v-111h-29v140h8v114h13z" />
    <glyph glyph-name="uni2523" unicode="&#x2523;" 
d="M142 218v-114h114v-29h-114v-111h-29v254h29z" />
    <glyph glyph-name="SF090000" unicode="&#x2524;" 
d="M134 218v-254h-13v119h-121v13h121v122h13z" />
    <glyph glyph-name="uni2525" unicode="&#x2525;" 
d="M134 218v-254h-13v111h-121v29h121v114h13z" />
    <glyph glyph-name="uni2526" unicode="&#x2526;" 
d="M142 218v-127h-8v-127h-13v119h-121v13h113v122h29z" />
    <glyph glyph-name="uni2527" unicode="&#x2527;" 
d="M134 218v-130h8v-124h-29v119h-113v13h121v122h13z" />
    <glyph glyph-name="uni2528" unicode="&#x2528;" 
d="M142 218v-254h-29v119h-113v13h113v122h29z" />
    <glyph glyph-name="uni2529" unicode="&#x2529;" 
d="M142 218v-143h-8v-111h-13v111h-121v29h113v114h29z" />
    <glyph glyph-name="uni252A" unicode="&#x252a;" 
d="M134 218v-114h8v-140h-29v111h-113v29h121v114h13z" />
    <glyph glyph-name="uni252B" unicode="&#x252b;" 
d="M142 218v-254h-29v111h-113v29h113v114h29z" />
    <glyph glyph-name="SF060000" unicode="&#x252c;" 
d="M0 96h256v-13h-122v-119h-13v119h-121v13z" />
    <glyph glyph-name="uni252D" unicode="&#x252d;" 
d="M0 104h134v-8h122v-13h-122v-120h-13v112h-121v29z" />
    <glyph glyph-name="uni252E" unicode="&#x252e;" 
d="M0 96h121v8h135v-29h-122v-111h-13v119h-121v13z" />
    <glyph glyph-name="uni252F" unicode="&#x252f;" 
d="M0 104h256v-29h-122v-111h-13v111h-121v29z" />
    <glyph glyph-name="uni2530" unicode="&#x2530;" 
d="M0 96h256v-13h-114v-119h-29v119h-113v13z" />
    <glyph glyph-name="uni2531" unicode="&#x2531;" 
d="M0 104h142v-8h114v-13h-114v-119h-29v111h-113v29z" />
    <glyph glyph-name="uni2532" unicode="&#x2532;" 
d="M0 96h113v8h143v-29h-114v-111h-29v119h-113v13z" />
    <glyph glyph-name="uni2533" unicode="&#x2533;" 
d="M0 104h256v-29h-114v-111h-29v111h-113v29z" />
    <glyph glyph-name="SF070000" unicode="&#x2534;" 
d="M0 96h121v122h13v-122h122v-13h-256v13z" />
    <glyph glyph-name="uni2535" unicode="&#x2535;" 
d="M134 218v-122h122v-13h-122v-8h-134v29h121v114h13z" />
    <glyph glyph-name="uni2536" unicode="&#x2536;" 
d="M134 218v-114h122v-29h-135v8h-121v13h121v122h13z" />
    <glyph glyph-name="uni2537" unicode="&#x2537;" 
d="M134 218v-114h122v-29h-256v29h121v114h13z" />
    <glyph glyph-name="uni2538" unicode="&#x2538;" 
d="M142 218v-122h114v-13h-256v13h113v122h29z" />
    <glyph glyph-name="uni2539" unicode="&#x2539;" 
d="M142 218v-122h114v-13h-114v-8h-142v29h113v114h29z" />
    <glyph glyph-name="uni253A" unicode="&#x253a;" 
d="M142 218v-114h114v-29h-143v8h-113v13h113v122h29z" />
    <glyph glyph-name="uni253B" unicode="&#x253b;" 
d="M142 218v-114h114v-29h-256v29h113v114h29z" />
    <glyph glyph-name="SF050000" unicode="&#x253c;" 
d="M134 218v-122h122v-13h-122v-119h-13v119h-121v13h121v122h13z" />
    <glyph glyph-name="uni253D" unicode="&#x253d;" 
d="M134 218v-122h122v-13h-122v-119h-13v111h-121v29h121v114h13z" />
    <glyph glyph-name="uni253E" unicode="&#x253e;" 
d="M134 218v-114h122v-29h-122v-111h-13v119h-121v13h121v122h13z" />
    <glyph glyph-name="uni253F" unicode="&#x253f;" 
d="M134 218v-114h122v-29h-122v-111h-13v111h-121v29h121v114h13z" />
    <glyph glyph-name="uni2540" unicode="&#x2540;" 
d="M142 218v-122h114v-13h-122v-119h-13v119h-121v13h113v122h29z" />
    <glyph glyph-name="uni2541" unicode="&#x2541;" 
d="M134 218v-122h122v-13h-114v-119h-29v119h-113v13h121v122h13z" />
    <glyph glyph-name="uni2542" unicode="&#x2542;" 
d="M142 218v-122h114v-13h-114v-119h-29v119h-113v13h113v122h29z" />
    <glyph glyph-name="uni2543" unicode="&#x2543;" 
d="M142 218v-122h114v-13h-122v-119h-13v111h-121v29h113v114h29z" />
    <glyph glyph-name="uni2544" unicode="&#x2544;" 
d="M142 218v-114h114v-29h-122v-111h-13v119h-121v13h113v122h29z" />
    <glyph glyph-name="uni2545" unicode="&#x2545;" 
d="M134 218v-122h122v-13h-114v-119h-29v111h-113v29h121v114h13z" />
    <glyph glyph-name="uni2546" unicode="&#x2546;" 
d="M134 218v-114h122v-29h-114v-111h-29v119h-113v13h121v122h13z" />
    <glyph glyph-name="uni2547" unicode="&#x2547;" 
d="M142 218v-114h114v-29h-122v-111h-13v111h-121v29h113v114h29z" />
    <glyph glyph-name="uni2548" unicode="&#x2548;" 
d="M134 218v-114h122v-29h-114v-111h-29v111h-113v29h121v114h13z" />
    <glyph glyph-name="uni2549" unicode="&#x2549;" 
d="M142 218v-122h114v-13h-114v-119h-29v111h-113v29h113v114h29z" />
    <glyph glyph-name="uni254A" unicode="&#x254a;" 
d="M142 218v-114h114v-29h-114v-111h-29v119h-113v13h113v122h29z" />
    <glyph glyph-name="uni254B" unicode="&#x254b;" 
d="M142 218v-114h114v-29h-114v-111h-29v111h-113v29h113v114h29z" />
    <glyph glyph-name="SF430000" unicode="&#x2550;" 
d="M0 110v-13h256v13h-256zM0 83v-13h256v13h-256z" />
    <glyph glyph-name="SF240000" unicode="&#x2551;" 
d="M108 218v-254h13v254h-13zM135 218v-254h13v254h-13z" />
    <glyph glyph-name="SF510000" unicode="&#x2552;" 
d="M256 110h-135v-146h13v106h122v13h-122v14h122v13z" />
    <glyph glyph-name="SF520000" unicode="&#x2553;" 
d="M256 96h-148v-132h13v119h14v-119h13v119h108v13z" />
    <glyph glyph-name="SF390000" unicode="&#x2554;" 
d="M256 110h-148v-146h13v133h135v13zM256 83h-121v-119h13v106h108v13z" />
    <glyph glyph-name="SF220000" unicode="&#x2555;" 
d="M0 110v-13h121v-14h-121v-13h121v-106h13v146h-134z" />
    <glyph glyph-name="SF210000" unicode="&#x2556;" 
d="M0 96v-13h108v-119h13v119h14v-119h13v132h-148z" />
    <glyph glyph-name="SF250000" unicode="&#x2557;" 
d="M0 110v-13h135v-133h13v146h-148zM0 83v-13h108v-106h13v119h-121z" />
    <glyph glyph-name="SF500000" unicode="&#x2558;" 
d="M134 218h-13v-148h135v13h-122v14h122v13h-122v108z" />
    <glyph glyph-name="SF490000" unicode="&#x2559;" 
d="M148 218h-13v-122h-14v122h-13v-135h148v13h-108v122z" />
    <glyph glyph-name="SF380000" unicode="&#x255a;" 
d="M148 218h-13v-121h121v13h-108v108zM108 218v-148h148v13h-135v135h-13z" />
    <glyph glyph-name="SF280000" unicode="&#x255b;" 
d="M121 110h-121v-13h121v-14h-121v-13h134v148h-13v-108z" />
    <glyph glyph-name="SF270000" unicode="&#x255c;" 
d="M108 218v-122h-108v-13h148v135h-13v-122h-14v122h-13z" />
    <glyph glyph-name="SF260000" unicode="&#x255d;" 
d="M108 218v-108h-108v-13h121v121h-13zM135 218v-135h-135v-13h148v148h-13z" />
    <glyph glyph-name="SF360000" unicode="&#x255e;" 
d="M134 218h-13v-254h13v106h122v13h-122v14h122v13h-122v108z" />
    <glyph glyph-name="SF370000" unicode="&#x255f;" 
d="M135 218v-254h13v119h108v13h-108v122h-13zM108 218v-254h13v254h-13z" />
    <glyph glyph-name="SF420000" unicode="&#x2560;" 
d="M148 218h-13v-121h121v13h-108v108zM256 83h-121v-119h13v106h108v13zM108 218v-254h13v254h-13z" />
    <glyph glyph-name="SF190000" unicode="&#x2561;" 
d="M134 218h-13v-108h-121v-13h121v-14h-121v-13h121v-106h13v254z" />
    <glyph glyph-name="SF200000" unicode="&#x2562;" 
d="M108 218v-122h-108v-13h108v-119h13v254h-13zM135 218v-254h13v254h-13z" />
    <glyph glyph-name="SF230000" unicode="&#x2563;" 
d="M108 218v-108h-108v-13h121v121h-13zM0 83v-13h108v-106h13v119h-121zM135 218v-254h13v254h-13z" />
    <glyph glyph-name="SF470000" unicode="&#x2564;" 
d="M0 83v-13h121v-106h13v106h122v13h-256zM0 110v-13h256v13h-256z" />
    <glyph glyph-name="SF480000" unicode="&#x2565;" 
d="M0 96v-13h108v-119h13v119h14v-119h13v119h108v13h-256z" />
    <glyph glyph-name="SF410000" unicode="&#x2566;" 
d="M0 83v-13h108v-106h13v119h-121zM256 83h-121v-119h13v106h108v13zM0 110v-13h256v13h-256z" />
    <glyph glyph-name="SF450000" unicode="&#x2567;" 
d="M0 97h256v13h-122v108h-13v-108h-121v-13zM0 83v-13h256v13h-256z" />
    <glyph glyph-name="SF460000" unicode="&#x2568;" 
d="M0 96v-13h256v13h-108v122h-13v-122h-14v122h-13v-122h-108z" />
    <glyph glyph-name="SF400000" unicode="&#x2569;" 
d="M108 218v-108h-108v-13h121v121h-13zM148 218h-13v-121h121v13h-108v108zM0 83v-13h256v13h-256z" />
    <glyph glyph-name="SF540000" unicode="&#x256a;" 
d="M0 83v-13h121v-106h13v106h122v13h-122v14h122v13h-122v108h-13v-108h-121v-13h121v-14h-121z" />
    <glyph glyph-name="SF530000" unicode="&#x256b;" 
d="M108 218v-122h-108v-13h108v-119h13v119h14v-119h13v119h108v13h-108v122h-13v-122h-14v122h-13z" />
    <glyph glyph-name="SF440000" unicode="&#x256c;" 
d="M108 218v-108h-108v-13h121v121h-13zM148 218h-13v-121h121v13h-108v108zM0 83v-13h108v-106h13v119h-121zM256 83h-121v-119h13v106h108v13z" />
    <glyph glyph-name="uni256D" unicode="&#x256d;" 
d="M256 92v-8q-111 -10 -122 -120h-9q11 117 131 128z" />
    <glyph glyph-name="uni256E" unicode="&#x256e;" 
d="M0 84v8q120 -11 131 -128h-9q-11 110 -122 120z" />
    <glyph glyph-name="uni256F" unicode="&#x256f;" 
d="M122 218h9q-11 -120 -131 -131v8q112 10 122 123z" />
    <glyph glyph-name="uni2570" unicode="&#x2570;" 
d="M256 95v-8q-120 11 -131 131h9q10 -113 122 -123z" />
    <glyph glyph-name="uni2571" unicode="&#x2571;" 
d="M243 197l-221 -221l-8 6l221 220z" />
    <glyph glyph-name="uni2572" unicode="&#x2572;" 
d="M8 218l-7 -8l246 -244l7 8z" />
    <glyph glyph-name="uni2573" unicode="&#x2573;" 
d="M8 218l-7 -8l120 -120l-120 -116l7 -8l120 116l119 -116l7 8l-119 116l119 120l-7 8l-119 -120z" />
    <glyph glyph-name="uni2581" unicode="&#x2581;" 
d="M0 -3h256v-29h-256v29z" />
    <glyph glyph-name="uni2582" unicode="&#x2582;" 
d="M0 27h256v-60h-256v60z" />
    <glyph glyph-name="uni2583" unicode="&#x2583;" 
d="M0 59h255v-92h-255v92z" />
    <glyph glyph-name="dnblock" unicode="&#x2584;" 
d="M0 90h255v-123h-255v123z" />
    <glyph glyph-name="uni2585" unicode="&#x2585;" 
d="M0 123h255v-156h-255v156z" />
    <glyph glyph-name="uni2586" unicode="&#x2586;" 
d="M0 155h256v-187h-256v187z" />
    <glyph glyph-name="uni2587" unicode="&#x2587;" 
d="M0 187h256v-220h-256v220z" />
    <glyph glyph-name="block" unicode="&#x2588;" 
d="M0 221h256v-254h-256v254z" />
    <glyph glyph-name="uni2589" unicode="&#x2589;" 
d="M222 218h-222v-254h222v254z" />
    <glyph glyph-name="uni258A" unicode="&#x258a;" 
d="M191 218h-191v-254h191v254z" />
    <glyph glyph-name="uni258B" unicode="&#x258b;" 
d="M160 218h-160v-254h160v254z" />
    <glyph glyph-name="lfblock" unicode="&#x258c;" 
d="M128 218h-128v-254h128v254z" />
    <glyph glyph-name="uni258D" unicode="&#x258d;" 
d="M96 218h-96v-254h96v254z" />
    <glyph glyph-name="uni258E" unicode="&#x258e;" 
d="M64 218h-64v-254h64v254z" />
    <glyph glyph-name="uni258F" unicode="&#x258f;" 
d="M32 218h-32v-254h32v254z" />
    <glyph glyph-name="dkshade" unicode="&#x2593;" 
d="M0 -36v254h256v-254h-256zM46 200h-24v-16h24v16zM73 167h-25v-17h25v17zM46 133h-24v-17h24v17zM73 99h-25v-17h25v17zM46 65h-24v-17h24v17zM73 31h-25v-17h25v17zM100 200h-25v-16h25v16zM127 167h-25v-17h25v17zM100 133h-25v-17h25v17zM127 99h-25v-17h25v17z
M100 65h-25v-17h25v17zM127 31h-25v-17h25v17zM100 -2h-25v-17h25v17zM154 200h-25v-16h25v16zM181 167h-25v-17h25v17zM154 133h-25v-17h25v17zM181 99h-25v-17h25v17zM154 65h-25v-17h25v17zM181 31h-25v-17h25v17zM154 -2h-25v-17h25v17zM209 200h-25v-16h25v16zM234 167
h-25v-17h25v17zM209 133h-25v-17h25v17zM234 99h-25v-17h25v17zM209 65h-25v-17h25v17zM234 31h-25v-17h25v17zM209 -2h-25v-17h25v17zM46 -2h-24v-17h24v17z" />
    <glyph glyph-name="uni2594" unicode="&#x2594;" 
d="M0 218v-31h256v31h-256z" />
    <glyph glyph-name="uni2595" unicode="&#x2595;" 
d="M256 218h-31v-254h31v254z" />
    <glyph glyph-name="filledbox" unicode="&#x25a0;" 
d="M230 -14h-204v202h204v-202z" />
    <glyph glyph-name="H22073" unicode="&#x25a1;" 
d="M230 -14h-204v202h204v-202zM37 177v-180h182v180h-182z" />
    <glyph glyph-name="triagup" unicode="&#x25b2;" 
d="M221 0h-186l93 188z" />
    <glyph glyph-name="uni25B3" unicode="&#x25b3;" 
d="M128 164l-76 -153h152zM221 0h-186l93 188z" />
    <glyph glyph-name="triagdn" unicode="&#x25bc;" 
d="M221 184h-186l93 -186z" />
    <glyph glyph-name="uni25BD" unicode="&#x25bd;" 
d="M52 174l76 -153l76 153h-152zM35 184h186l-93 -186z" />
    <glyph glyph-name="uni25C6" unicode="&#x25c6;" 
d="M128 0l-96 94l96 96l96 -96z" />
    <glyph glyph-name="uni25C7" unicode="&#x25c7;" 
d="M128 13l81 81l-81 81l-81 -81zM128 0l-96 94l96 96l96 -96z" />
    <glyph glyph-name="circle" unicode="&#x25cb;" 
d="M128 9q75 7 82 82q-7 76 -82 83q-75 -7 -82 -83q7 -75 82 -82zM128 184q85 -8 93 -93q-8 -84 -93 -91q-85 7 -93 91q8 85 93 93z" />
    <glyph glyph-name="uni25CE" unicode="&#x25ce;" 
d="M128 184q85 -8 93 -93q-8 -84 -93 -91q-85 7 -93 91q8 85 93 93zM128 178q-79 -7 -87 -87q8 -78 87 -86q79 8 87 86q-7 80 -87 87zM128 156q59 -6 65 -64q-5 -59 -65 -65q-59 6 -65 65q6 58 65 64zM128 149q-53 -5 -58 -57q5 -53 58 -58q53 5 58 58q-5 52 -58 57z" />
    <glyph glyph-name="H18533" unicode="&#x25cf;" 
d="M128 184q85 -8 93 -93q-8 -84 -93 -91q-85 7 -93 91q8 85 93 93z" />
    <glyph glyph-name="uni25E2" unicode="&#x25e2;" 
d="M235 -17h-203l203 214v-214z" />
    <glyph glyph-name="uni25E3" unicode="&#x25e3;" 
d="M16 -17v211l205 -211h-205z" />
    <glyph glyph-name="uni25E4" unicode="&#x25e4;" 
d="M13 205h214l-214 -205v205z" />
    <glyph glyph-name="uni25E5" unicode="&#x25e5;" 
d="M237 208v-212l-205 212h205z" />
    <glyph glyph-name="uni2605" unicode="&#x2605;" 
d="M128 179l24 -70h71l-58 -44l21 -67l-58 39l-58 -39l21 67l-58 44h71z" />
    <glyph glyph-name="uni2606" unicode="&#x2606;" 
d="M83 12l45 34l45 -33l1 1l-18 54l46 34h-57l-17 55h-1l-17 -55h-56l45 -34l-17 -55zM128 179l24 -70h71l-58 -44l21 -67l-58 40l-58 -40l20 67l-57 44h71z" />
    <glyph glyph-name="uni2609" unicode="&#x2609;" 
d="M128 76q-13 2 -15 15q2 14 15 15q14 -1 15 -15q-1 -13 -15 -15zM128 9q75 7 82 82q-7 76 -82 83q-75 -7 -82 -83q7 -75 82 -82zM128 184q85 -8 93 -93q-8 -84 -93 -91q-85 7 -93 91q8 85 93 93z" />
    <glyph glyph-name="female" unicode="&#x2640;" 
d="M83 129q3 -42 45 -45q42 3 45 45q-3 42 -45 45q-42 -3 -45 -45zM84 19v12h38v42q-47 9 -51 56q5 52 57 57q52 -5 57 -57q-4 -47 -51 -56v-42h38v-12h-38v-29h-12v29h-38z" />
    <glyph glyph-name="male" unicode="&#x2642;" 
d="M83 46q4 -42 45 -46q41 4 45 46q-4 41 -45 45q-41 -4 -45 -45zM84 137l-3 5q33 23 45 43h5q9 -16 39 -38q3 -3 5 -4l-2 -6q-22 9 -39 26v-61q47 -9 51 -56q-4 -50 -57 -55q-53 5 -57 55q4 47 51 56v60q-17 -15 -38 -25z" />
    <glyph glyph-name="uni3000" unicode="&#x3000;" 
 />
    <glyph glyph-name="uni3001" unicode="&#x3001;" 
d="M38 29v2q33 -1 49 -18q4 -7 4 -12q-4 -17 -19 -10q-3 2 -9 12q-1 3 -2 5q-9 14 -23 21z" />
    <glyph glyph-name="uni3002" unicode="&#x3002;" 
d="M63 42h2q25 -2 27 -28v-2q-2 -23 -26 -25h-2q-26 2 -28 25v2q3 26 27 28zM65 36h-1q-20 -2 -22 -22v-1q1 -19 22 -20h2q20 2 21 19v2q-1 21 -22 22z" />
    <glyph glyph-name="uni3003" unicode="&#x3003;" 
d="M130 132l-45 -87h-4l28 84q3 10 11 12q10 0 10 -9zM175 132l-45 -87h-4l28 84q2 10 11 12q11 0 10 -9z" />
    <glyph glyph-name="uni3005" unicode="&#x3005;" 
d="M109 189l24 -12q1 0 1 -4q0 -3 -6 -5q-2 -1 -3 -2q-7 -15 -17 -28h60q3 0 8 3t7 3q17 -11 21 -22q-1 -7 -6 -7h-6q-2 0 -5 -4q-1 -1 -1 -2q-23 -33 -50 -63q38 -30 10 -41q-7 0 -22 26q-4 7 -6 10q-13 18 -27 29l1 2q20 -7 35 -19q31 35 52 74q-1 1 -2 1h-75
q-25 -29 -47 -38q-4 1 -3 4q28 23 44 50q14 25 7 39q1 8 6 6z" />
    <glyph glyph-name="uni3006" unicode="&#x3006;" 
d="M156 190l2 2q3 1 12 -3q-8 4 2 -1q11 -4 18 -11q9 -6 6 -11q-2 -2 -6 -7q-2 -4 -4 -6q-6 -9 -33 -40q17 -18 9 -28q-7 -10 -12 -7q-4 3 -10 20q-52 -58 -62 -68q-10 -9 -18 -15q-4 -3 -7 -2q-2 1 -3 6q-2 11 -2 29q0 19 6 52q6 32 33 44q26 13 54 -19q17 20 24 31
q8 12 3 19q-3 6 -12 15zM129 111q-10 15 -21 19q-12 3 -19 0q-9 -4 -18 -17q-8 -12 -10 -35q-2 -24 -2 -30t6 -3q6 2 64 66z" />
    <glyph glyph-name="uni3007" unicode="&#x3007;" 
d="M128 208q108 -10 118 -118q-10 -106 -118 -116q-108 10 -118 116q10 108 118 118zM128 200q-101 -9 -110 -110q9 -99 110 -108q101 9 110 108q-9 101 -110 110z" />
    <glyph glyph-name="uni3008" unicode="&#x3008;" 
d="M198 212l-64 -122l64 -121l-8 -3l-67 124l67 125z" />
    <glyph glyph-name="uni3009" unicode="&#x3009;" 
d="M58 212l8 3l68 -125l-68 -124l-8 3l65 121z" />
    <glyph glyph-name="uni300A" unicode="&#x300a;" 
d="M185 211l-65 -121l65 -120l-6 -4l-67 124l67 125zM209 211l-65 -121l65 -120l-6 -4l-67 124l67 125z" />
    <glyph glyph-name="uni300B" unicode="&#x300b;" 
d="M71 211l6 4l67 -125l-67 -124l-6 4l65 120zM47 211l6 4l67 -125l-67 -124l-6 4l65 120z" />
    <glyph glyph-name="uni300C" unicode="&#x300c;" 
d="M134 202v-235h-11v246h83v-11h-72z" />
    <glyph glyph-name="uni300D" unicode="&#x300d;" 
d="M123 -21v235h11v-246h-83v11h72z" />
    <glyph glyph-name="uni300E" unicode="&#x300e;" 
d="M187 206v-27h-46v-204h-26v231h72zM181 185v15h-60v-218h14v203h46z" />
    <glyph glyph-name="uni300F" unicode="&#x300f;" 
d="M69 -25v26h46v205h26v-231h-72zM75 -4v-15h60v218h-14v-203h-46z" />
    <glyph glyph-name="uni3010" unicode="&#x3010;" 
d="M115 -35v251h61q-31 -48 -34 -113v-24q0 -62 34 -114h-61z" />
    <glyph glyph-name="uni3011" unicode="&#x3011;" 
d="M142 -35h-61q34 52 34 114v24q-3 63 -34 113h61v-251z" />
    <glyph glyph-name="uni3012" unicode="&#x3012;" 
d="M15 194v-22h225v22h-225zM15 136v-22h102v-136h22v136h101v22h-225z" />
    <glyph glyph-name="uni3013" unicode="&#x3013;" 
d="M55 157h146v-40h-146v40zM55 74h146v-40h-146v40z" />
    <glyph glyph-name="uni3014" unicode="&#x3014;" 
d="M133 179v-178l57 -27l-5 -8l-62 29v191l62 29l5 -8z" />
    <glyph glyph-name="uni3015" unicode="&#x3015;" 
d="M123 179l-57 28l5 8l62 -29v-191l-62 -29l-5 8l57 27v178z" />
    <glyph glyph-name="uni3016" unicode="&#x3016;" 
d="M116 214h64q-39 -44 -40 -124q1 -80 40 -123h-64v247zM121 209v-237h48q-34 46 -34 118t34 119h-48z" />
    <glyph glyph-name="uni3017" unicode="&#x3017;" 
d="M140 214v-247h-64q39 43 40 123q-1 80 -40 124h64zM135 209h-48q34 -47 34 -119t-34 -118h48v237z" />
    <glyph glyph-name="uni301D" unicode="&#x301d;" 
d="M182 135l-35 40q-7 7 -14 8q-10 -1 -12 -12q-1 -7 10 -13l36 -23h15zM135 135l-35 40q-7 7 -13 8q-12 -1 -13 -12q-1 -7 10 -13l37 -23h14z" />
    <glyph glyph-name="uni301E" unicode="&#x301e;" 
d="M87 135l37 23h1q9 6 9 13q-1 11 -13 12q-7 -1 -13 -8l-35 -40h14zM136 135l37 23h1q9 6 9 13q-1 11 -13 12q-7 -1 -13 -8l-35 -40h14z" />
    <glyph glyph-name="uni3021" unicode="&#x3021;" 
d="M110 -21l2 163v48q0 3 -2 11l-1 6q26 1 39 -9q0 -2 -4 -5q-3 -2 -3 -3v-48l3 -160q-2 -6 -21 -9q-13 -1 -13 6z" />
    <glyph glyph-name="uni3022" unicode="&#x3022;" 
d="M72 24l3 101v18l-2 23q0 1 2 1h3q22 -2 30 -6q1 0 1 -3l-7 -4v-29l2 -101q-2 -6 -19 -7q-13 0 -13 7zM153 -21l3 163v48q0 3 -2 10q-2 6 -1 7q26 0 39 -9q0 -2 -4 -5q-3 -2 -3 -3v-48l3 -160q-2 -6 -21 -9q-14 -1 -14 6z" />
    <glyph glyph-name="uni3023" unicode="&#x3023;" 
d="M119 34l3 97v17l-2 22l1 1h2q22 -2 32 -6q1 -2 0 -3l-7 -3v-28l3 -97q-3 -5 -20 -6q-12 0 -12 6zM191 -21l3 163v48q0 3 -2 10q-2 6 -1 7q26 0 39 -9q0 -2 -4 -5q-3 -2 -3 -3v-48l3 -160q-2 -6 -21 -9q-14 -1 -14 6zM42 17l3 123v21l-2 29q0 1 2 1q3 -1 8 -1q18 -3 25 -7
q1 0 1 -3l-7 -5v-35l2 -123q-2 -6 -20 -8q-12 0 -12 8z" />
    <glyph glyph-name="uni3024" unicode="&#x3024;" 
d="M29 -6l-3 5q75 41 107 96q-50 49 -96 77l5 3q53 -20 103 -60q23 37 36 82q1 0 5 -1q4 -2 15 -6q14 -7 14 -9q-2 -5 -11 -7v-1t-1 -2q-9 -25 -34 -65q-2 -4 -4 -7l9 -9q6 -7 8 -9q45 -43 57 -71q1 -3 -2 -10q-1 -3 -1 -4t-5 -3q-1 -1 -2 -1q-1 -1 -6 0q-2 1 -3 1t-5 2
q-6 2 -7 3q-2 3 -7 10q-28 45 -51 69q-38 -54 -121 -83z" />
    <glyph glyph-name="uni3025" unicode="&#x3025;" 
d="M118 180l-6 -13q-3 0 -5 -2q0 -1 -1 -2q0 -1 -1 -3q-2 -3 -2 -5q0 -10 8 -18q2 -3 8 -5q3 0 4 -1q29 19 48 35q15 16 18 44q12 -14 17 -29q3 -14 -1 -23q-12 -16 -57 -38q19 -6 33 -27q15 -21 14 -48q0 -27 -21 -46q-22 -21 -54 -22q-33 0 -52 21q-18 19 -18 44
q0 37 55 76q-12 4 -19 13q-9 9 -9 23q0 12 11 21t30 5zM159 83q-9 13 -32 23q-53 -34 -53 -63q1 -17 13 -29q15 -14 34 -14q15 0 29 11q20 18 20 39q1 17 -11 33z" />
    <glyph glyph-name="uni3026" unicode="&#x3026;" 
d="M19 123h177q9 16 17 24q1 1 3 0h1q22 -16 28 -24q3 -3 -1 -6h-212h-16l-5 7q4 0 8 -1zM107 198q39 -9 45 -36q1 -17 -13 -25q-18 -8 -25 5q-3 6 0 17q4 20 -9 36q-1 2 2 3z" />
    <glyph glyph-name="uni3027" unicode="&#x3027;" 
d="M17 131h180q9 16 18 24q2 2 3 0q20 -13 29 -23q3 -4 -1 -6h-216q-8 0 -16 -1l-5 7q4 0 8 -1zM102 206q39 -9 44 -36q1 -17 -13 -25q-17 -8 -25 5q-3 6 0 18q5 20 -8 35q-1 3 2 3zM39 47h129q1 1 3 5q10 13 16 18q0 1 3 0q22 -15 30 -23q3 -3 -1 -6h-167h-17l-5 7
q8 -1 9 -1z" />
    <glyph glyph-name="uni3028" unicode="&#x3028;" 
d="M39 70h129q1 1 3 5q10 13 16 18q0 1 3 0q22 -15 30 -23q3 -3 -1 -6h-167h-17l-5 7q8 -1 9 -1zM14 2h183q8 13 18 23q1 1 3 0h1q18 -12 30 -23q3 -3 -1 -4h-221q-8 -1 -17 -1l-5 6q5 0 9 -1zM14 132h186q9 14 18 24h4q18 -12 30 -23q3 -4 -1 -6h-223q-1 0 -17 -1l-5 7
q4 0 8 -1zM102 206q39 -9 44 -36q1 -17 -13 -25q-17 -8 -25 5q-3 6 0 18q5 20 -8 35q-1 3 2 3z" />
    <glyph glyph-name="uni3029" unicode="&#x3029;" 
d="M170 160h-94q9 -62 53 -106q33 42 41 106zM69 160h-8q-1 0 -20 -1l-6 6q5 0 10 -1h127l10 12q1 1 4 -1q9 -2 27 -16q2 -2 0 -5q-5 -2 -15 -4q-14 -70 -50 -112q39 -29 85 -32q3 -3 1 -5q-28 -3 -31 -23q-3 -2 -6 -1q-36 12 -69 43q-33 -22 -103 -45q-5 2 -2 5
q66 29 90 54q-43 51 -44 126zM112 165v38q21 -1 32 -2q2 0 2 -3v-2q-2 -2 -3 -5t-2 -4v-22h-29z" />
    <glyph glyph-name="uni3041" unicode="&#x3041;" 
d="M64 8h2q13 4 37 27q-3 16 -3 31v6q-28 -19 -42 -42q-2 -5 -1 -8v-2q2 -11 7 -12zM136 -13v1q53 14 59 56q-1 36 -46 41q-10 -27 -36 -53q1 -5 4 -13q3 -9 3 -11q-2 -7 -11 0q-3 6 -4 15q-27 -23 -43 -23q-13 4 -10 33q13 28 49 47q2 20 5 40q-10 -1 -19 -1q-19 0 -25 14
q17 -6 25 -6q6 0 20 2q5 19 5 29q0 8 -8 12v3q23 -2 24 -14q0 -2 -2 -6q-2 -2 -2 -3q-4 -7 -7 -19q19 3 31 8q14 6 18 0q2 -5 -12 -9q-14 -5 -40 -9q-1 -3 -2 -10q-3 -19 -4 -29q15 6 32 8q2 5 2 10q0 3 -3 7q-2 3 -3 4q11 -2 15 -7q3 -4 0 -13v-1q54 -5 55 -47
q-5 -51 -70 -56zM107 75q0 -12 0 -10q0 -10 3 -22q21 25 28 42q-16 -1 -31 -10z" />
    <glyph glyph-name="uni3042" unicode="&#x3042;" 
d="M138 -26v2q66 22 69 69q-3 44 -52 49q-14 -29 -47 -64q1 -6 4 -12q8 -17 1 -22q-9 -3 -15 14q-2 3 -2 8q-35 -31 -53 -31q-7 0 -9 15q0 2 -1 7q-2 17 -2 25q13 32 62 57q3 31 8 49h-24q-28 0 -33 19q16 -6 41 -7q9 0 19 1q7 24 7 40q0 4 -8 9q-2 1 -3 2v2q30 0 29 -22
q-1 -2 -3 -5q-3 -4 -4 -6q-3 -9 -7 -19q26 4 44 12q11 2 15 -2q3 -5 -2 -9q-24 -11 -60 -14q-5 -23 -8 -45q18 5 39 7q3 8 3 14q0 4 -8 9l-2 2q16 5 26 -16l-1 -1q-2 -4 -2 -8v-1q66 -9 67 -58q-6 -61 -88 -70zM92 62v18q-35 -20 -49 -47q-4 -23 6 -31q15 4 44 31
q-1 15 -1 29zM103 85v-18q0 -11 2 -22q24 27 34 49q-19 -1 -36 -9z" />
    <glyph glyph-name="uni3043" unicode="&#x3043;" 
d="M113 81l1 -1q-3 -6 -9 -17q-10 -16 -13 -24q-1 -3 0 -10q1 -8 -2 -8q-34 4 -37 89q0 16 -5 31q16 -11 19 -28q0 -2 -2 -15q-1 -10 -1 -11q2 -36 18 -42q7 2 31 36zM152 112v1q49 2 56 -53q-1 -14 -6 -15q-2 0 -4 4l-2 2q-4 4 -16 6h-4v1h1q10 2 14 6q9 10 -8 33
q-14 16 -31 15z" />
    <glyph glyph-name="uni3044" unicode="&#x3044;" 
d="M112 93v-3q-24 -41 -31 -55q-1 -2 1 -10q2 -15 -4 -15q-43 9 -46 116q0 25 -8 41q23 -13 24 -32q0 -2 -2 -17q-1 -13 -1 -14q4 -60 24 -61q6 5 43 50zM181 58v1q33 2 30 16q-13 51 -54 52v1q62 5 75 -70q0 -13 -6 -19q-8 1 -11 10q-4 3 -29 8q-3 1 -5 1z" />
    <glyph glyph-name="uni3045" unicode="&#x3045;" 
d="M119 189h1q5 -9 25 -15q3 -1 4 -1q29 -8 15 -22q-3 0 -9 5q-4 2 -5 3q-2 1 -7 4q-24 11 -24 26zM81 114q8 -7 16 -7q3 0 13 4q23 11 39 11q26 1 26 -38q-3 -68 -54 -92q42 38 43 102q0 23 -15 23q-17 0 -37 -17q-6 -5 -8 -5q-19 4 -23 19z" />
    <glyph glyph-name="uni3046" unicode="&#x3046;" 
d="M111 218q9 -16 35 -22h2q24 -6 24 -21q0 -8 -7 -8q-3 0 -9 5q-7 6 -12 9q-11 5 -20 12q-14 10 -13 25zM121 -32h-2q57 53 56 120q0 38 -20 39q-16 0 -42 -18q-15 -11 -20 -11q-20 5 -27 22v5q1 -1 4 -3q9 -8 17 -8q4 0 17 6q28 13 47 13q40 0 40 -57q-1 -67 -70 -108z
" />
    <glyph glyph-name="uni3047" unicode="&#x3047;" 
d="M109 181q10 -9 20 -15q3 -1 8 -3q16 -6 15 -14q0 -6 -6 -6q-34 16 -37 38zM80 114h2l2 -2q2 -3 4 -3q15 0 54 16q7 -1 12 -7q3 -8 -12 -17q-1 -2 -2 -2q-6 -6 -23 -27q-16 -19 -23 -27q18 2 31 -17q12 -18 30 -18t30 5q11 2 16 -3q5 -6 -4 -10q-10 -4 -32 -4
q-31 0 -46 27q-9 17 -20 17q-9 0 -20 -18q-12 -19 -22 -19q-10 7 8 27q29 18 74 82q-23 -5 -39 -15q-6 -4 -8 -4q-11 5 -12 19z" />
    <glyph glyph-name="uni3048" unicode="&#x3048;" 
d="M104 207h1q7 -12 36 -23q14 -5 16 -8q8 -16 -6 -17q-44 21 -47 48zM141 117l-2 2q-24 -3 -46 -19q-8 -5 -10 -5q-18 7 -18 30h2q0 -1 1 -2q4 -10 9 -10q11 0 49 15q19 7 22 7q15 -2 17 -16q0 -6 -16 -16q-11 -7 -14 -11q-2 -3 -17 -20q-21 -25 -31 -38q28 -2 44 -29
q13 -17 40 -18q14 0 32 7q-1 0 2 1q16 0 19 -9q1 -13 -37 -12q-46 -1 -56 14q-3 4 -10 13q-18 31 -31 28q-1 0 -3 -1q-4 -1 -6 -2q-11 -14 -19 -24l-3 -3q-8 -17 -19 -17q-16 1 3 31q37 19 98 104z" />
    <glyph glyph-name="uni3049" unicode="&#x3049;" 
d="M164 133v1q38 12 48 -25q0 -5 -11 -1q-4 1 -5 1t-8 -1q-6 -2 -8 -2l2 2q8 7 8 13q-3 12 -26 12zM45 37h1q4 -6 10 -6q2 0 13 9q14 12 24 19q0 17 1 45q-6 -1 -10 -1q-24 3 -27 16q8 -5 16 -5q11 0 21 2v37q0 6 -8 10v3q16 3 24 -11q0 -2 -2 -7q-4 -13 -6 -29q6 2 15 6
q5 2 6 2q10 -1 9 -8q-3 -6 -16 -10q-9 -3 -15 -4q-1 -12 -1 -34v-7q27 18 54 18q45 -1 47 -35q-2 -36 -44 -37q-16 0 -28 6v2q7 -3 17 -3q38 3 42 32q-2 30 -37 32q-24 0 -51 -21v-33v-7q1 -6 1 -9q-1 -10 -9 -11q-4 1 -5 5q-1 1 -3 4q-8 12 -14 17q-2 -9 -7 -9
q-16 4 -18 22zM89 13h3q0 5 1 39q-17 -17 -21 -25l-1 -1q9 -7 18 -13z" />
    <glyph glyph-name="uni304A" unicode="&#x304a;" 
d="M174 151v1q21 13 43 0q25 -18 14 -35q-2 0 -5 2q-4 3 -7 3q-4 0 -18 -5q-7 -3 -9 -3v2q2 2 6 5q13 9 13 17q-3 17 -37 13zM23 26h2q6 -9 13 -9h1q21 21 47 39v59q-9 -1 -18 -1q-26 0 -30 19l1 -1q14 -8 24 -8q13 0 23 3v48q-1 13 -14 15v2q31 5 34 -17l-1 -2
q-8 -14 -10 -43q10 3 22 10q6 3 7 3q9 0 10 -6q-1 -13 -40 -21v-7v-48q43 26 76 26q51 -4 54 -43q-4 -47 -54 -49h-3q-11 0 -33 8q-4 1 -6 2v2q3 -1 7 -2q12 -3 19 -3h2q47 3 50 45q-3 33 -43 35q-30 0 -69 -33v-15q0 -10 2 -35v-6q0 -17 -12 -17q-3 2 -4 5q-4 11 -22 25
l-3 3q-3 -5 -6 -8q-1 -3 -5 -3q-24 9 -21 28zM83 -4h2q1 10 1 20v26q-18 -17 -30 -31q5 -2 14 -8q9 -5 13 -7z" />
    <glyph glyph-name="uni304B" unicode="&#x304b;" 
d="M173 143q72 -22 69 -73q-2 -7 -10 -7q-2 0 -3 2q0 2 -1 3q-11 6 -44 11q35 4 37 12q-3 24 -48 52zM80 187v2q18 7 35 -16q0 -3 -3 -7q-5 -6 -8 -16q-1 -2 -4 -10q-2 -6 -4 -10q20 5 33 5q34 0 34 -35q-11 -100 -62 -116q-1 1 -1 5q0 3 -1 5q-2 6 -13 16q-6 7 -9 11h2
q18 -11 29 -11q35 16 41 89q0 28 -21 28q-15 0 -36 -7q-4 -9 -12 -30q-26 -62 -28 -66q-12 -34 -27 -32q-13 5 7 30q5 7 7 10q17 26 39 83l-21 -9q-17 -8 -19 -8q-25 10 -25 27q1 0 6 -3q9 -7 17 -7q5 0 28 6q12 3 18 5q11 30 11 47q0 8 -11 13q-1 1 -2 1z" />
    <glyph glyph-name="uni304C" unicode="&#x304c;" 
d="M196 162q19 0 30 -10q12 -12 3 -19q-8 0 -16 12l-1 1q-7 9 -16 16zM217 181q35 -2 37 -20q-1 -7 -6 -7t-13 10q-3 5 -5 7t-6 5q-5 4 -7 5zM163 141q12 -2 24 -8q14 -7 26 -18q25 -26 19 -47q-3 -7 -10 -7q-2 0 -3 3l-1 2q-1 1 -3 2q-1 1 -2 1q-9 1 -18 4q-3 1 -10 2
q-7 2 -11 2q3 1 10 2q12 2 18 4h2q7 2 7 6q0 6 -4 12q-2 3 -7 10q-3 2 -4 4q-15 15 -33 26zM3 123h3q5 -9 16 -10q11 1 21 4q5 1 14 4q10 2 14 3q12 24 12 46q0 10 -13 16v2q12 3 23 -4q1 -1 3 -2q9 -6 9 -11q0 -3 -3 -6q-1 -1 -1 -2q-4 -7 -7 -15q-4 -11 -9 -20q3 1 8 2
q16 3 25 3h4q15 0 24 -10q7 -11 7 -22v-5q0 -22 -12 -58q-11 -28 -23 -40q-14 -16 -27 -16q-1 2 -1 6q-1 3 -1 4q-3 6 -12 15q-7 8 -10 12h2q11 -6 23 -10q3 -1 6 -1q6 0 10 4q7 6 16 24q15 30 15 58v6q0 8 -3 16q-5 8 -16 9h-5q-9 0 -25 -6q-3 -1 -4 -1t-3 -1q-1 0 -2 -1
q-2 -2 -2 -4q-12 -30 -24 -59q-7 -16 -13 -31q-1 -3 -4 -8q-4 -11 -8 -15q-7 -9 -15 -9q-5 1 -6 8q1 8 7 15q1 1 2 3q5 5 11 14q8 12 14 26q11 24 21 49q1 1 1 3q1 2 1 3q-7 -2 -15 -5q-2 -1 -6 -2q-6 -2 -8 -3q-1 -1 -3 -2q-2 -2 -4 -3q-5 -1 -8 -1q-5 0 -10 8
q-11 11 -9 20z" />
    <glyph glyph-name="uni304D" unicode="&#x304d;" 
d="M53 149v2q18 -5 48 3q6 1 12 4q-6 11 -12 21q-1 1 -3 5q-4 7 -7 9q-5 2 -14 -2q-2 -1 -3 -1l-1 1q1 1 2 3q3 6 6 8q8 6 24 -1q8 -4 8 -9v-7q0 -5 6 -16l1 -1l1 -2q0 -1 3 -5q11 4 21 10q1 1 3 2q7 5 13 5q10 -1 12 -6q0 -7 -6 -8q-8 -3 -14 -5q-12 -4 -24 -9q1 0 1 -1
l1 -1q3 -7 12 -20q4 -7 6 -10q12 5 24 11q6 4 13 4q11 -1 11 -5q0 -7 -7 -8q-4 -2 -11 -4q-4 -1 -6 -2q-9 -3 -18 -5q10 -16 22 -29q1 -1 2 -3q9 -11 15 -14q1 -1 5 -3q2 -1 3 -2q3 -2 3 -8t-2 -10q-3 -9 -7 -9q-3 0 -5 2l-2 2q-7 5 -27 10q-3 1 -5 2q-28 6 -44 6h-5
q-28 0 -40 -11q-7 -7 -7 -16q0 -12 8 -19q6 -7 24 -12q16 -4 31 -4h4h5q4 1 6 1h5q11 0 17 -5q6 -6 3 -12q-5 -4 -10 -4h-5q-7 0 -21 2q-5 1 -8 1q-13 2 -25 5q-29 8 -38 25q-8 16 -1 31q7 17 37 21q12 2 24 2h12q8 0 25 -1q18 -2 27 -2q-1 1 -1 2q-1 1 -1 2q-7 9 -15 19
q-10 14 -19 27q-1 0 -4 -1q-30 -11 -46 -13q-14 -2 -20 0q-7 2 -18 10q-3 2 -4 3v2q14 -5 27 -5q17 0 49 10q2 1 5 2q4 1 5 1q-11 17 -20 33h-1q-25 -9 -43 -9q-5 0 -9 3q-7 3 -13 8z" />
    <glyph glyph-name="uni304E" unicode="&#x304e;" 
d="M160 181v2q22 -3 32 -13q11 -16 -1 -21q-5 0 -13 13q-10 16 -18 19zM187 195v2q50 -8 36 -30q-6 0 -17 12q-11 14 -19 16zM29 101v2q14 -5 27 -5q26 0 59 14q-11 17 -19 32q-31 -9 -45 -9q-4 0 -16 8l-6 3v2q30 -5 61 6q-20 35 -23 36q-4 4 -17 -3l-1 1q15 27 40 1v-7
q0 -7 11 -24q7 3 19 10q15 7 18 7q10 -1 12 -6q0 -7 -6 -8q-3 -2 -37 -14q8 -15 19 -32q3 1 7 3q28 13 30 12q11 -1 11 -5q0 -7 -7 -8q-7 -3 -34 -12q25 -34 38 -45q1 -1 3 -2q4 -2 5 -3q8 -15 -6 -27q-3 -1 -8 4l-1 1q-28 16 -76 17q-48 -1 -50 -27q4 -34 65 -35h7q7 1 9 1
q18 0 23 -10q3 -10 -13 -11q-94 3 -99 48q-2 40 70 39q12 0 33 -2q17 -1 25 -1q0 1 -1 2t-1 2q-17 18 -33 46q-46 -14 -60 -15q-14 0 -33 14z" />
    <glyph glyph-name="uni304F" unicode="&#x304f;" 
d="M177 -22v-4q-1 -11 -10 -7q-4 2 -8 10q-1 2 -2 3q-7 15 -16 28q-12 19 -28 37q-2 3 -7 9q-7 9 -11 13l-3 3q-10 8 -12 15q-5 10 9 25q9 9 17 19q22 23 40 47l3 3q5 6 6 10q1 3 1 7q0 3 -6 8q-4 3 -5 4v2q26 -2 30 -25q0 -7 -11 -16q-2 -1 -3 -2q-10 -11 -22 -20
q-16 -16 -34 -31l-5 -5q-9 -8 -12 -12q-5 -8 8 -20q4 -4 12 -11q6 -5 23 -21q18 -19 33 -40q13 -16 13 -29z" />
    <glyph glyph-name="uni3050" unicode="&#x3050;" 
d="M147 140v1q18 -1 27 -12q11 -16 -1 -20q-3 0 -10 12q-9 15 -16 19zM174 153v1q19 -2 28 -11q11 -14 3 -21q-5 0 -12 10q-8 13 -19 21zM115 208v2q26 -2 30 -25q0 -7 -24 -27q-29 -25 -52 -47q-11 -10 -12 -19q1 -9 13 -20q74 -63 77 -94q0 -11 -6 -12q-8 0 -16 18
q-2 3 -2 4q-15 27 -51 70q-7 8 -9 11q-1 2 -4 4q-11 13 -10 20q0 8 17 25q5 6 14 16q51 54 46 62q0 4 -9 11q-1 1 -2 1z" />
    <glyph glyph-name="uni3051" unicode="&#x3051;" 
d="M32 79v-5q0 -20 7 -37q3 0 3 2q13 22 22 46v-2l-6 -21q-3 -11 -4 -16q0 -1 -1 -3q-5 -20 -5 -32v-7q0 -4 -4 -6q-14 0 -19 29v3q0 3 -1 10q-2 16 -2 25v17q0 23 10 66q6 20 6 31q0 10 -11 17q0 3 2 3q4 0 13 -6q14 -9 14 -19q0 -4 -2 -7q-23 -55 -22 -88zM121 117h-4
q-10 0 -26 8v2q17 -5 45 1q10 1 31 4q-13 -2 4 1v22v2q1 26 -10 32q-5 3 -17 3v2q14 9 30 1q13 -8 13 -22q0 -4 -2 -11q-1 -3 -1 -5v-21q6 0 12 2q3 0 8 1q7 2 11 2t12 -4q1 -1 2 -1q8 -5 5 -11q-5 -1 -17 0h-9h-7h-8q-6 -1 -9 -1v-35q0 -42 -10 -68q-11 -30 -31 -45
q-1 0 -2 -1q-9 -6 -15 -7q22 19 35 64q10 31 10 77v13q-4 0 -11 -1q-25 -4 -39 -4z" />
    <glyph glyph-name="uni3052" unicode="&#x3052;" 
d="M51 79v-2q-18 -46 -15 -69q1 -6 0 -8q-1 -5 -6 -5q-21 13 -22 70q0 31 14 85q5 21 5 26t-7 14q-4 5 -4 7q22 -3 29 -24q0 -2 -4 -11q-22 -47 -22 -90q1 -34 10 -35q13 20 22 42zM189 189q16 -1 26 -15q10 -18 -2 -20q-3 -1 -9 12q-8 16 -15 23zM213 201v1q18 -2 29 -12
q11 -12 2 -17q-6 -1 -16 12q-9 12 -15 16zM77 125v2q6 -1 20 -1q26 0 63 7q2 65 -29 57v2q33 16 45 -20q0 -1 -1 -4q-3 -10 -4 -33q7 1 19 4q13 2 14 2q17 -5 20 -13q0 -4 -3 -4q-5 0 -18 1h-6q-12 0 -26 -2v-3q4 -122 -54 -152h-2v2q46 41 45 151v1q-38 -6 -53 -6
q-19 0 -30 9z" />
    <glyph glyph-name="uni3053" unicode="&#x3053;" 
d="M122 170h9h9q6 -1 9 -1q2 0 6 -1q13 -1 18 -3q14 -7 9 -15q-1 -4 -8 -4h-5q-18 0 -50 -13q-9 -4 -14 -6h-2l1 1q18 11 33 26v1h-4q-4 1 -6 1h-5q-24 0 -43 16l-2 1q-5 6 -6 10q18 -13 51 -13zM111 10h10q34 0 67 9q2 0 5 1q9 2 14 0q9 -3 8 -11q0 -7 -8 -9q-6 -2 -19 -3
q-5 -1 -7 -1h-12q-8 -1 -13 -1h-27q-49 0 -75 20q-13 12 -13 29q0 15 11 33q0 -3 -2 -9q-2 -4 -2 -6q-4 -24 13 -39q12 -9 25 -10q13 -3 25 -3z" />
    <glyph glyph-name="uni3054" unicode="&#x3054;" 
d="M55 181q15 -12 67 -14q45 -2 45 -15q0 -9 -14 -9q-21 0 -63 -16q5 4 14 10q17 12 15 17q-51 0 -64 27zM194 189v2q21 -2 31 -12q11 -13 2 -20q-6 0 -16 13q-10 14 -17 17zM172 175q22 -3 32 -13q12 -15 1 -21q-4 -2 -13 12q-8 13 -13 16q-1 1 -3 2q-3 2 -4 4zM36 74
q0 -2 -1 -5q-4 -13 -4 -21q2 -40 69 -41q31 0 71 9q11 2 13 2q11 0 14 -8q2 -9 -7 -13q-16 -4 -67 -5q-97 0 -99 49q0 15 11 33z" />
    <glyph glyph-name="uni3055" unicode="&#x3055;" 
d="M126 63h-9q-19 0 -35 -6q-22 -10 -22 -26q0 -8 8 -20q6 -9 26 -14q10 -3 30 -6q3 -1 4 -1q3 0 9 -1q13 -2 19 -2h4q15 0 15 -9q-1 -9 -15 -10h-4q-26 0 -57 12q-44 18 -44 44v5q0 16 17 29q9 7 29 10q3 0 10 1q13 2 20 2h11q25 0 45 -7v2q-14 22 -31 43q-3 5 -12 14
q-4 5 -6 7q-39 -12 -62 -12h-5q-10 0 -19 7q-9 8 -8 18h1q8 -11 25 -12h5q12 0 30 4q12 2 22 5q-4 4 -12 11q-3 3 -5 4l-12 9q-5 3 -8 5q-6 5 0 20v1q3 7 9 7q2 0 4 -2q3 -1 4 -2q4 -2 14 -4h2q20 -4 38 -12q2 -1 5 -3l9 -3q2 -1 7 -1h6q6 -3 7 -5q3 -6 -2 -10q-6 -6 -14 -9
q-14 -7 -29 -12q22 -24 43 -52q2 -2 5 -6q7 -8 10 -12q4 -5 4 -10q0 -7 -5 -12q-6 -7 -13 0q-4 6 -12 11q-9 5 -16 6q-5 1 -16 2q-5 1 -8 1h-7q-6 1 -9 1zM171 159q1 3 -4 8l-1 1q-20 17 -47 17q-13 0 -14 -5q0 -3 4 -7l1 -1q4 -4 13 -11l12 -12q3 -2 5 -5q22 8 31 15z" />
    <glyph glyph-name="uni3056" unicode="&#x3056;" 
d="M175 181q18 -2 29 -14q11 -14 2 -21q-7 0 -15 13q-6 10 -10 14l-2 2q-5 3 -4 6zM197 192v2q36 -4 40 -26q0 -6 -6 -6q-5 0 -11 9q-11 16 -23 21zM21 143h1q6 -12 27 -12q20 0 54 9q-16 16 -36 29q-9 19 9 28q2 0 4 -2q3 -1 4 -2q38 -7 68 -22q2 -1 7 -1h6q12 -7 5 -15
q-15 -11 -43 -22q17 -17 43 -51q3 -4 9 -10q11 -12 10 -18q-2 -12 -12 -15q-4 0 -12 8q-4 5 -6 6q-12 9 -61 10q-59 -1 -61 -32q4 -40 98 -44q16 0 17 -9q-2 -9 -17 -10q-98 8 -103 58q0 45 81 45q36 -2 51 -7v2q-28 42 -49 63q-39 -11 -65 -11q-29 2 -29 25zM148 159
q-2 13 -29 23q-30 8 -37 -2q0 -5 5 -8l15 -15q10 -9 14 -13q25 9 32 15z" />
    <glyph glyph-name="uni3057" unicode="&#x3057;" 
d="M55 146v27q0 10 -3 14q-1 2 -7 5q-2 1 -3 2q0 5 3 5q11 0 19 -6q12 -9 12 -21q0 -4 -2 -7q-4 -15 -7 -46q-1 -9 -1 -13q0 -6 -1 -17q-2 -23 -2 -35v-16q0 -24 10 -36q10 -10 28 -10h10q51 0 104 45q-1 -9 -13 -21q-38 -39 -88 -40h-5q-30 1 -46 19q-11 14 -11 42v17v12
q1 8 1 13q2 33 2 67z" />
    <glyph glyph-name="uni3058" unicode="&#x3058;" 
d="M41 194v3q39 -5 33 -36q-11 -49 -14 -118q-1 -54 45 -53q56 1 109 50h1q-36 -63 -99 -66q-66 -4 -64 67q0 27 2 105q1 21 1 30q0 11 -14 18zM113 149q41 -16 28 -35q-8 -2 -17 18q-7 13 -11 17zM135 160v2q20 -1 31 -13q13 -15 0 -19q-5 0 -12 11q-10 13 -19 19z" />
    <glyph glyph-name="uni3059" unicode="&#x3059;" 
d="M161 159h11q23 0 45 2h4q7 2 11 0q1 -1 3 -2q8 -5 8 -9q0 -3 -1 -4q-3 -3 -9 -3q-4 0 -11 2q-5 2 -7 2q-25 4 -51 4h-10q-8 0 -14 -1q0 -20 2 -40q1 -1 2 -3q2 -2 2 -3q6 -15 6 -31v-8q0 -34 -17 -62q-13 -20 -39 -37h-2v1q40 42 40 72h-7q-17 0 -28 12q-13 15 -13 29v5
q4 33 34 37q6 0 11 -3v30q-16 -1 -31 -4q-2 0 -7 -1q-28 -5 -40 -12q-7 -5 -14 -5q-8 0 -13 4q-16 10 -11 18q2 0 6 -4q2 -1 3 -2q5 -3 16 -1t21 5q34 8 70 11v40q-1 12 -21 14v3l6 3h1h4q10 0 22 -12q7 -8 1 -24q-4 -8 -4 -17v-7q4 0 11 1h10zM134 60v26q0 8 -3 16
q-6 12 -16 12q-8 0 -16 -8t-8 -19q0 -12 8 -21q9 -12 26 -13q9 0 9 7z" />
    <glyph glyph-name="uni305A" unicode="&#x305a;" 
d="M171 203v2q19 -3 28 -14q10 -15 -3 -18q-3 0 -10 12q-9 15 -15 18zM197 213v2q42 -2 32 -25q-6 -4 -14 8q-9 13 -18 15zM109 209v3q5 3 11 3q29 -4 26 -25q-6 -6 -6 -31v-1h12q9 1 14 1q15 0 49 2q10 1 11 1q12 -2 17 -10q0 -9 -11 -9q-3 0 -10 2q-35 5 -60 5h-7
q-9 -1 -14 -1q0 -6 1 -20v-18q10 -13 10 -42q-1 -69 -59 -103h-2q35 32 42 70q-44 4 -48 49q4 33 31 37q9 0 15 -3v29q-67 -7 -85 -18q-8 -6 -19 0q-13 8 -14 19q1 0 6 -3q8 -4 12 -4q3 0 16 3q46 10 84 12v25q1 25 -22 27zM133 60v28q-1 23 -19 26q-22 -6 -23 -27
q3 -29 34 -34q7 1 8 7z" />
    <glyph glyph-name="uni305B" unicode="&#x305b;" 
d="M94 99v-28q-6 -65 62 -61q20 0 36 4q4 1 5 1q21 -1 23 -9q3 -11 -45 -11q-99 -8 -94 92v9q-18 -4 -42 -12q-5 -1 -7 -2q-19 4 -28 27q1 0 8 -4q10 -7 14 -7q3 0 21 4q21 5 34 8v37q1 12 -19 13q13 23 35 -6q0 -2 -2 -7l-1 -1v-34q34 7 76 10q2 30 2 44q1 19 -19 21
q4 11 19 5q18 -9 19 -21q1 -2 -2 -5q-2 -1 -2 -2q-1 -21 -4 -42h12q18 -1 29 4q3 1 4 1q17 -4 24 -17q0 -4 -6 -4q-1 0 -4 1q-22 4 -51 4h-9q-9 -67 -28 -69q-2 0 -3 4q-1 2 -2 3q-3 7 -17 15l-6 3v2l22 -6q13 -6 21 47q-40 -3 -75 -11z" />
    <glyph glyph-name="uni305C" unicode="&#x305c;" 
d="M195 168v2q20 -2 30 -12q10 -16 -3 -20q-4 0 -10 9q-7 15 -17 21zM219 181v2q27 -4 33 -17q3 -10 -3 -12q-3 -1 -8 7q-9 14 -22 20zM91 93v-46q0 -26 14 -35q10 -8 34 -7h15q11 0 22 2q2 0 6 1q5 2 7 2q6 0 12 -1q13 -3 9 -11q-3 -4 -17 -7h-2h-8q-6 -1 -9 -1h-11
q-15 0 -31 3q-22 4 -35 14q-17 15 -19 62v4q0 -3 0 17q-2 0 -5 -1q-3 0 -5 -1q-16 -4 -32 -11l-1 -1q-4 -2 -7 -2q-4 0 -9 3q-7 5 -13 13l-1 1q-2 3 -2 7q2 0 5 -3q2 -2 3 -2q8 -5 24 -2q13 2 25 5q9 2 17 3v8v14q0 7 -1 16q0 8 -5 12q-5 3 -12 3q1 6 12 7q5 0 9 -2
q13 -4 13 -13q0 -3 -1 -9t-1 -9v-24q3 1 7 2q5 1 7 1q36 6 55 6h3v3q2 16 2 35v8q0 9 -3 13q-4 7 -15 7v2q10 7 19 2q18 -10 18 -19q0 -3 -1 -4q1 -2 -3 -4q-2 -1 -2 -2q0 -4 -1 -12q0 -7 -1 -11v-9q-1 -6 -1 -9h6q19 0 36 6q9 0 15 -4q1 0 2 -1q12 -6 8 -13q-3 -1 -7 -1h-4
q-22 5 -46 5h-11q-2 -14 -5 -26q-4 -23 -14 -36q-3 -4 -9 -4q-5 1 -8 7t-16 15q-3 3 -5 4h3q12 -5 23 -8q8 -2 11 13q5 12 6 26q1 2 1 5q1 3 1 4q-36 -2 -71 -10z" />
    <glyph glyph-name="uni305D" unicode="&#x305d;" 
d="M200 99h-5q-21 0 -47 -13q-32 -18 -37 -41q-4 -18 7 -33q12 -16 39 -21q25 -3 25 -15q0 -4 -4 -7q-5 -2 -16 0q-9 3 -17 6q-42 22 -43 52v5q1 29 34 55q6 4 13 10l-1 1q-64 -13 -94 -37l-3 -3q-9 -8 -15 -8q-12 1 -8 14q3 7 11 10q2 1 8 3q4 1 6 2q12 8 23 18
q21 18 42 38q22 22 43 46q1 4 -3 5q-2 0 -5 -1h-3q-9 -3 -16 -6q-17 -7 -29 -17l-1 -1q-1 -2 -3 -2q-7 0 -15 10q-8 8 -8 18v4h2q5 -12 16 -12q11 1 21 4q21 6 41 14h1q6 0 15 -12q1 -2 2 -3l1 -2q2 -3 2 -5q0 -4 -6 -6h-1q-9 -3 -22 -16l-2 -2q-49 -46 -77 -65v-1
q30 11 87 24q3 1 8 2q10 2 16 4q2 0 5 2q5 2 9 2h5q4 -1 5 -1l9 -3q5 -2 8 -3q1 0 2 -1q5 -3 5 -6q0 -7 -10 -7h-4q-3 0 -9 1h-7z" />
    <glyph glyph-name="uni305E" unicode="&#x305e;" 
d="M182 170q19 -5 28 -16q9 -16 -2 -19q-5 0 -11 11q-5 10 -10 16q-5 5 -5 8zM209 181v2q28 -2 36 -26q-2 -8 -8 -8t-10 9q-5 15 -18 23zM130 96v2q-65 -15 -98 -42q-7 -6 -11 -6q-9 1 -9 11q2 9 12 13q56 31 122 107q2 3 -3 5q-17 -1 -44 -20q-10 -7 -12 -7q-20 7 -24 32h2
l3 -3q7 -9 12 -9q17 0 57 16l7 2q11 -4 20 -22q0 -4 -6 -6h-1q-2 -1 -26 -21q-49 -43 -76 -63q28 9 84 22q25 6 29 7q1 1 3 2q4 3 10 3q30 -2 34 -13q2 -8 -18 -8h-10q-12 1 -14 1q-67 -10 -78 -62q0 -39 48 -46q21 -1 24 -12q0 -13 -20 -10q-57 19 -60 60q0 35 43 67z" />
    <glyph glyph-name="uni305F" unicode="&#x305f;" 
d="M203 111q0 4 -8 9q-7 3 -15 5q-7 1 -21 2q-7 1 -11 1q28 10 58 -1q15 -5 21 -13q4 -6 4 -13q0 -8 -7 -8q-3 0 -6 2l-1 1q-4 2 -7 2q-4 0 -9 -2q-3 -1 -8 -4q-10 -5 -16 -5l1 1q17 10 23 18q3 2 2 5zM190 -3h9q4 0 11 1q7 2 10 2q10 0 16 -5q1 -3 -3 -7q-7 -6 -22 -6h-24
q-7 0 -21 2q-7 1 -11 1q-26 4 -35 19q-6 12 -3 27q0 2 2 7q1 6 2 9v-13q0 -9 4 -17q4 -7 11 -12q10 -5 34 -7h5q3 0 8 -1h7zM76 196v2q15 4 31 -10q3 -3 3 -6q0 -4 -3 -7l-2 -2q-2 -4 -5 -15q-1 -3 -2 -5q0 -3 -2 -6q11 3 20 9q2 1 5 3q5 3 8 3q9 -1 11 -6q0 -7 -16 -13h-1
q-10 -5 -21 -8q-6 -3 -12 -4q-10 -31 -35 -89q-3 -9 -5 -13q-1 -4 -4 -11q-2 -6 -3 -8q-1 -7 -5 -11q-6 -6 -12 -3q-3 3 -3 7v7q0 4 4 8q1 2 2 3q13 14 27 51q12 27 21 55q-9 -3 -20 -4q-18 -4 -28 5q-7 6 -9 13l6 -3q3 -2 4 -2q16 -8 47 4q1 0 3 1h2q1 2 2 6q3 8 4 12
q9 23 1 31q-2 3 -8 5q-3 0 -5 1z" />
    <glyph glyph-name="uni3060" unicode="&#x3060;" 
d="M107 45h1q-9 -50 53 -50q9 0 37 4q6 1 7 1q24 -1 18 -12q-10 -9 -38 -9q-82 1 -84 40q0 10 6 26zM133 128q75 15 82 -32q-3 -5 -12 0q-4 2 -6 2t-8 -1q4 1 -2 -1q-16 -6 -24 -6q11 6 20 13q15 22 -50 25zM187 168v2q23 -1 35 -12q12 -16 -3 -20q-3 0 -10 9q-12 16 -22 21
zM208 189v2q39 -1 43 -21q0 -8 -8 -8q-4 0 -12 9q-12 14 -23 18zM61 195v2q23 6 32 -17q0 -4 -3 -9q-2 -4 -2 -5q-1 -2 -3 -9t-4 -11q18 8 30 16q14 0 14 -7q0 -6 -7 -8q-20 -10 -44 -19q-28 -76 -48 -125q-3 -8 -9 -10h-1q-6 -2 -8 0q-4 11 0 23q7 4 13 16q21 34 40 93
q-12 -3 -22 -3q-26 -1 -34 19q16 -8 25 -8q17 0 36 7q6 16 10 32q2 22 -15 23z" />
    <glyph glyph-name="uni3061" unicode="&#x3061;" 
d="M78 194v2q7 4 12 3q2 -1 6 -2q10 -3 13 -9q1 -3 1 -6t-2 -8q-2 -2 -2 -4q-6 -13 -9 -26q2 0 4 1q16 5 31 11q24 11 37 1q0 -8 -5 -9q-5 -2 -17 -4h-2l-21 -6q-3 -1 -5 -1q-3 -1 -10 -3q-10 -3 -15 -4q0 -1 -1 -4q-2 -9 -4 -22q0 -2 -1 -5q-5 -21 -9 -48h1q45 31 88 31
q59 0 59 -41v-2q-2 -30 -32 -49q-29 -16 -68 -16h-9v2q32 5 60 22q33 19 33 47v2q-2 29 -39 30q-49 -3 -87 -38q-4 -5 -5 -11t-4 -10q-2 -3 -8 -3q-6 1 -6 14v4v1q6 28 13 56q3 11 6 32q1 4 1 5h-3q-10 -2 -22 -2h-4q-22 2 -23 24q3 -1 6 -4q4 -4 6 -5q5 -3 11 -3h4
q14 0 27 3q3 13 6 28q2 10 0 17q-3 7 -12 9z" />
    <glyph glyph-name="uni3062" unicode="&#x3062;" 
d="M177 157v2q47 -15 29 -37q-7 0 -13 13q-7 15 -16 22zM204 168v2q21 -3 32 -14q7 -7 5 -15q-4 -7 -11 -2q-2 0 -6 6q-8 15 -20 23zM60 191v2q18 11 32 -12q0 -4 -3 -9q-1 -2 -2 -3q-2 -4 -5 -19q-1 -4 -2 -7q10 3 27 10q24 9 28 9q11 -1 15 -8q3 -5 -6 -9q-11 -1 -45 -11
q-16 -5 -23 -7q-4 -20 -10 -60q-2 -12 -3 -15q49 30 93 30q54 -2 56 -43q-6 -60 -109 -65v2q90 18 93 71q-2 28 -39 30q-56 -4 -89 -42q-4 -15 -10 -19q-3 -1 -7 -1q-6 5 -7 17q0 3 6 24q12 42 17 69q-14 -3 -26 -3q-23 2 -26 24q13 -11 25 -11q14 0 28 4q1 4 2 11
q3 20 3 31q0 8 -13 10z" />
    <glyph glyph-name="uni3063" unicode="&#x3063;" 
d="M155 130h9q21 0 36 -8q18 -10 19 -32v-5q-2 -35 -31 -55q-22 -15 -57 -15h-5l1 1q30 7 44 17q21 13 29 30q6 11 6 25v4q0 14 -10 23q-12 10 -29 10h-7q-20 0 -54 -12q-24 -9 -39 -22l-1 -1q-2 -3 -6 -3q-5 0 -11 6l-2 2q-10 7 -9 14q2 0 5 -3q2 -2 3 -2q8 -4 28 6
q5 2 7 3q18 8 36 12q2 0 7 1q21 4 31 4z" />
    <glyph glyph-name="uni3064" unicode="&#x3064;" 
d="M118 2v1q103 20 109 92q-3 49 -54 54q-55 -2 -104 -41q-2 -1 -5 -4q-8 -9 -14 -9q-29 11 -36 32q15 -10 21 -10q11 0 38 14q52 26 91 26q76 -2 79 -63q-8 -86 -125 -92z" />
    <glyph glyph-name="uni3065" unicode="&#x3065;" 
d="M197 160v2q40 -4 28 -27q-6 0 -14 11q-8 10 -14 14zM219 180v1q28 -2 34 -18q0 -6 -5 -7q-6 -1 -10 5l-2 2q-8 13 -17 17zM93 5v2q101 18 104 88v3q-1 24 -14 35q-13 10 -32 10h-3q-56 0 -103 -40q-12 -10 -16 -10q-16 3 -26 24q2 0 6 -2q6 -3 11 -3q6 0 24 10
q49 27 93 27q74 0 74 -60q-2 -83 -118 -84z" />
    <glyph glyph-name="uni3066" unicode="&#x3066;" 
d="M169 4h4q5 0 17 -6q9 -4 9 -10q0 -12 -23 -8q-76 13 -78 78q2 64 69 104v2q-18 -1 -49 -9q-35 -9 -55 -21q-1 0 -2 -1q-3 -2 -9 -3q-5 0 -11 6q-7 6 -12 13q-3 3 -3 6v4h2q5 -9 16 -10q10 0 28 6q34 9 70 17q21 3 42 8q2 0 5 1q7 2 10 2q8 0 15 -2h2q5 -1 11 -4
q6 -5 3 -12q-2 -3 -8 -3q-3 0 -9 1t-8 1q-86 -20 -99 -101q6 -54 63 -59z" />
    <glyph glyph-name="uni3067" unicode="&#x3067;" 
d="M185 138h2q18 -6 26 -20q8 -17 -3 -20q-7 1 -13 17t-12 23zM214 146q42 -15 32 -36q-7 -6 -19 15q-8 15 -13 21zM150 163v2q-39 0 -93 -27q-16 -8 -19 -8q-25 8 -29 29h2q4 -10 17 -10q8 0 42 10q51 15 74 17q3 0 14 3q20 4 24 4q17 0 27 -5q6 -5 4 -11t-16 -4
q-13 1 -26 -2q-66 -26 -77 -90q1 -67 70 -69q2 0 4 -1q2 0 5 -1h1q10 -4 11 -8q-17 -22 -69 6q-33 21 -33 61q3 63 67 104z" />
    <glyph glyph-name="uni3068" unicode="&#x3068;" 
d="M107 -2h26q22 0 43 5q3 2 7 2q19 -1 20 -9q-1 -5 -10 -9q-16 -5 -43 -5h-18q-80 -1 -78 48q0 27 42 60q3 3 5 4q-4 8 -6 21q-4 21 -6 43q0 4 -1 11q0 7 -1 10q0 1 -1 2q-1 3 -2 4q-2 2 -9 4q-3 1 -5 2v3q8 6 24 -1q13 -8 13 -18v-4q0 -4 -1 -12q-2 -8 -2 -12v-11
q0 -9 3 -25q1 -7 2 -10q40 29 67 32q14 -1 14 -7q0 -8 -14 -12q-2 -1 -3 -1q-111 -36 -114 -87q2 -27 48 -28z" />
    <glyph glyph-name="uni3069" unicode="&#x3069;" 
d="M159 179v2q20 -1 33 -13q13 -14 2 -19q-4 0 -12 10q-12 15 -23 20zM175 197v2q23 0 35 -7q13 -12 3 -19q-4 0 -12 8q-15 14 -26 16zM57 191v3q31 7 38 -17q0 -1 -1 -6q-5 -37 3 -70h1q5 3 14 8q42 27 52 24q11 -1 14 -9q1 -7 -11 -11q-123 -39 -123 -88q-2 -27 56 -27
q41 0 65 6q5 1 6 1q15 0 17 -9q-1 -10 -15 -11q-16 -3 -35 -3q-100 0 -99 44q3 39 50 69q-8 22 -13 67q-2 20 -4 22q-8 6 -15 7z" />
    <glyph glyph-name="uni306A" unicode="&#x306a;" 
d="M21 155v2q16 -8 28 -8q22 0 39 3q8 16 14 31q5 18 -12 20v2q26 5 29 -22q-1 -1 -3 -4l-3 -3q-6 -12 -11 -20q11 3 25 7q5 2 6 2q14 0 16 -9q-1 -6 -55 -16q-37 -74 -54 -95q-7 -8 -13 -1q-4 11 8 26q3 0 8 6l2 2q15 19 36 61q-18 -4 -33 -4q-15 1 -27 20zM118 15
q-35 -1 -38 -18q4 -17 38 -18q25 1 34 29q-17 7 -34 7zM184 132v1q31 -1 45 -13q18 -27 -8 -20q-14 3 -29 3q-33 1 -32 -31q0 -11 3 -43q1 -8 1 -11q16 -4 29 -12q18 -11 8 -24q-5 0 -11 6l-3 3q-8 7 -23 12q-4 -32 -41 -32q-46 1 -50 26q5 25 54 26q7 0 22 -2q-10 2 3 0
q-3 36 -3 34q0 30 11 40q6 6 26 11q22 6 22 12q-6 11 -24 14z" />
    <glyph glyph-name="uni306B" unicode="&#x306b;" 
d="M32 189q24 -8 27 -28q0 -5 -6 -17q-18 -39 -18 -79q0 -23 7 -41q1 -1 2 -1h1q2 7 7 20q12 30 17 47q-1 -17 -8 -50q-7 -30 -8 -44q0 -12 -9 -12q-17 8 -20 78q0 24 10 69q6 24 6 32q0 9 -5 19q-3 5 -3 7zM160 127h-3l16 14l1 1q6 3 5 7q-8 2 -15 2q-27 0 -63 -8v1
q37 21 79 21q31 -1 33 -16q0 -6 -18 -10q-22 -5 -35 -12zM100 69h1q-5 -48 63 -46q16 0 34 5q5 1 6 1q18 -1 28 -10q4 -13 -41 -12q-94 -1 -92 48q0 2 1 7v7z" />
    <glyph glyph-name="uni306C" unicode="&#x306c;" 
d="M39 154h1q0 -25 12 -54q31 27 64 37q3 13 3 28q1 16 -19 21v1q28 5 32 -19q0 -13 -2 -27q11 2 23 2q80 -3 83 -77q0 -30 -14 -50q11 -9 18 -15q8 -9 0 -19q-6 -1 -12 7l-3 3q-6 8 -13 12q-21 -17 -49 -17q-26 1 -28 20q2 23 37 24q20 0 36 -8q12 18 12 45q-2 69 -67 70
q-12 0 -25 -4q-11 -51 -42 -97q3 -3 5 -7q1 -1 3 -4q6 -8 6 -13q0 -6 -4 -6q-5 0 -10 5t-10 12q-26 -31 -46 -32q-10 1 -13 12q0 2 -2 5q-3 9 -3 19q1 28 31 62q-7 19 -7 39q0 5 2 17q1 5 1 8zM172 26q-30 -1 -32 -18q1 -14 23 -16q21 0 39 22q-16 11 -30 12zM115 130
q-30 -12 -58 -42q11 -23 22 -40q26 40 36 82zM47 76q-26 -33 -27 -57q1 -16 10 -17q15 1 39 31q-13 20 -22 43z" />
    <glyph glyph-name="uni306D" unicode="&#x306d;" 
d="M161 23q-21 -1 -23 -15q1 -15 24 -16q21 1 35 19q-17 12 -36 12zM68 109v2v11q-10 -4 -18 -15q-5 -6 -8 -6q-22 5 -24 21q1 0 3 -1q8 -4 13 -4q15 1 37 20q1 10 2 25q1 8 1 10v2q0 7 -4 13q-3 3 -10 7q-1 1 -2 1v2q9 5 20 -3q13 -10 11 -19q-6 -18 -9 -39q11 -7 12 -13
q1 -7 -6 -10q-5 -6 -11 -16v-9q-1 -6 -1 -9q54 53 99 54q53 -4 55 -63q0 -29 -11 -52q14 -7 23 -18q4 -6 4 -13q0 -5 -6 -5q-4 0 -11 7l-1 1q-2 2 -6 5q-7 6 -12 9q-18 -20 -46 -20q-30 1 -32 24q2 22 36 23q26 -2 38 -7q8 19 8 47q0 54 -43 54t-95 -52v-21q0 -8 1 -24
t1 -23q0 -28 -8 -31q-3 0 -5 1q-3 3 -3 9v2q-4 14 -20 36q-2 -5 -5 -13q-2 -8 -3 -10q-3 -11 -14 -9q-9 9 -1 18q32 43 51 101zM66 70v10q-2 -4 -5 -11l-6 -12q2 2 5 7zM66 5v60q-6 -6 -11 -12h-2q-1 -3 -4 -10q-6 -14 -8 -20q9 -9 17 -15q3 -3 8 -3z" />
    <glyph glyph-name="uni306E" unicode="&#x306e;" 
d="M129 157l-4 12q-87 -29 -100 -98q10 -38 27 -42q63 64 77 128zM153 -5h-2l1 2q68 33 71 93q-7 75 -85 80h-4q-3 -1 -5 -1q18 -14 13 -28q-3 -3 -6 -10l-3 -6q-56 -103 -83 -112q-26 11 -33 58q17 94 122 107q95 -7 100 -90q-1 -71 -86 -93z" />
    <glyph glyph-name="uni306F" unicode="&#x306f;" 
d="M32 61v-11q0 -15 3 -27q1 -6 5 -5q3 6 7 20q1 5 2 8q5 17 9 33q-2 -21 -5 -42q0 -3 -1 -8q-2 -10 -2 -16v-5q0 -4 2 -11q-2 4 0 -2v-3q2 -12 -3 -13q-6 -1 -11 2q-3 3 -5 7q-4 7 -6 22q-3 20 -3 40v20q0 22 10 66q5 20 7 31q3 13 -2 20l-2 1q-4 4 -3 6q11 0 20 -11
q7 -9 1 -25q-1 -4 -5 -12q-9 -24 -12 -36q-6 -24 -6 -49zM191 16q0 -17 -16 -28q-10 -6 -28 -6h-7q-32 0 -41 17q-3 5 0 13q9 24 46 25h4q13 0 28 -3v1q0 3 -3 80q-12 -1 -21 -1h-4q-22 0 -48 19v2q17 -8 36 -8h7q9 0 27 2q-12 -2 2 0v13v26q0 10 -3 14q-2 3 -10 7
q-2 1 -3 1v2q1 2 4 2q9 0 17 -4q14 -9 14 -17q0 -2 -1 -5q0 1 -1 -1q-6 -15 -6 -30v-4v-1q17 3 34 11h1q9 -1 10 -7q-1 -8 -12 -11q-12 -4 -24 -6q-1 0 -4 -1q-3 0 -5 -1q0 -14 2 -28q1 -27 4 -53v-5q17 -3 32 -12q16 -10 11 -18q-5 -6 -12 -1q-3 1 -10 6q-6 4 -10 6
q-1 1 -5 2q-3 2 -5 2zM143 29h-4q-13 0 -21 -4q-12 -5 -12 -16q1 -16 31 -17h5q16 0 26 7q8 4 9 23q-2 0 -5 2q-19 5 -29 5z" />
    <glyph glyph-name="uni3070" unicode="&#x3070;" 
d="M20 192l1 2q16 1 25 -19q2 -7 -7 -30q-19 -49 -19 -91q1 -40 8 -36q1 4 3 11q6 21 16 53v-4q-15 -69 -10 -78q6 -20 -6 -21q-21 2 -21 76q0 38 12 88q12 41 -2 49zM194 187v2q42 -9 31 -29q-6 -5 -19 13q-8 10 -12 14zM215 202q18 -2 27 -12q10 -14 1 -20q-5 -2 -15 14
q-8 14 -13 18zM143 191v3q34 -3 34 -22q-6 -12 -7 -39v-1q10 3 24 7q11 4 13 4q10 -1 11 -7q0 -5 -10 -10l-2 -1q-12 -5 -36 -8q1 -23 6 -65q1 -15 2 -21q27 -8 41 -21q3 -10 -5 -12q-4 -1 -21 8q-9 5 -14 8q-3 -31 -43 -32q-49 1 -53 25q6 28 49 30q16 0 31 -3q-3 44 -4 81
q-12 -1 -25 -1q-26 0 -44 21q17 -8 39 -8q17 0 30 3v23q1 34 -16 38zM127 29q-32 -1 -35 -21q1 -16 35 -16q34 -2 36 29q-16 8 -36 8z" />
    <glyph glyph-name="uni3071" unicode="&#x3071;" 
d="M245 184q-2 18 -20 20q-19 -1 -20 -20q2 -17 20 -19q19 1 20 19zM199 184q2 24 25 26q25 -2 27 -26q-1 -24 -26 -25q-24 2 -26 25zM6 41v25q0 21 10 62q5 24 7 36q4 18 -7 25l1 2q8 0 14 -4q7 -6 11 -15q3 -9 -6 -27q-1 -3 -2 -5q-18 -49 -18 -85v-7q0 -14 3 -28
q3 -6 5 -5q4 11 10 32q6 22 9 32v-4q-3 -23 -8 -44q-4 -24 -2 -34q0 -1 1 -2q1 -4 1 -9q1 -10 -8 -10q-8 1 -12 10q-4 10 -6 20q-3 17 -3 35zM158 140v26q0 8 -4 16q-2 4 -12 9v2q10 4 25 -7q10 -8 10 -14q0 -2 -1 -5q0 1 -1 -1q-6 -15 -6 -30v-7q12 3 22 7q2 0 6 2q5 3 8 3
t6 -2q1 0 2 -1q4 -2 4 -5q0 -7 -12 -11q-10 -4 -22 -6q-2 0 -7 -1q-4 -1 -7 -2q6 -74 5 -59q0 -3 1 -10q2 -10 2 -15q14 -3 24 -8q18 -7 18 -16q0 -7 -7 -7q-1 0 -4 1q2 -1 -1 1q-3 1 -10 4q-13 7 -20 10q0 -16 -9 -25q-10 -10 -28 -10h-4q-5 0 -17 2q-5 1 -8 1q-11 3 -20 9
q-8 7 -8 16q1 13 15 21q14 6 30 6h7q14 0 28 -2q0 3 -1 6v4q-1 28 -3 58v12q-12 -1 -22 -1h-7q-24 1 -41 22q16 -9 34 -9h10q13 0 25 2v14zM129 26h-4q-11 0 -20 -3q-14 -5 -14 -14q1 -17 30 -19h4q14 0 26 6t12 23q-15 7 -34 7z" />
    <glyph glyph-name="uni3072" unicode="&#x3072;" 
d="M80 181h1q4 0 12 -3q1 -1 2 -1q8 -5 5 -14q-1 -3 -7 -7l-3 -3q-5 -5 -12 -18q-1 -2 -2 -3q-9 -16 -17 -33q-14 -30 -14 -55v-4q1 -29 20 -41q6 -4 15 -4q29 0 56 29q16 19 26 43q14 35 14 66v4q0 6 -3 18q-3 11 -3 17v5q0 9 9 9q9 -1 10 -12v-5q0 -22 11 -42
q10 -21 27 -37l2 -2q8 -7 10 -12q1 -3 1 -7q-3 -13 -17 -5q-6 5 -11 13q-14 20 -23 44q-4 9 -7 19v-20q0 -43 -21 -84q-30 -53 -70 -54h-4q-24 1 -38 17q-15 15 -15 43v4q-1 44 35 107l1 1q4 6 4 11q-9 -7 -18 -13l-1 -1q-12 -8 -19 -8q-6 0 -13 9q-6 5 -5 10q26 -16 62 19z
" />
    <glyph glyph-name="uni3073" unicode="&#x3073;" 
d="M6 162q21 -14 51 12q7 7 13 7q9 0 15 -10q3 -6 -3 -12q-1 -1 -3 -2q-5 -3 -7 -7q-39 -59 -39 -109q1 -42 34 -43q79 6 94 135q0 11 -5 34q-1 4 -1 5q-1 15 11 14q10 -4 11 -19q0 -41 41 -79q8 -8 8 -10q3 -14 -9 -15q-10 1 -21 17q-19 25 -29 65q-3 -156 -92 -163
q-52 1 -53 60q2 53 38 122q-23 -21 -36 -21q-15 3 -18 19zM189 181q24 -7 32 -25q3 -10 -3 -15q-7 -2 -12 8q-7 17 -17 32zM214 189v2q34 -7 37 -28q-1 -7 -7 -9t-10 5q0 1 -1 2q-8 21 -19 28z" />
    <glyph glyph-name="uni3074" unicode="&#x3074;" 
d="M64 -7h4q32 1 57 35q21 29 26 63q6 24 6 49v5v1q0 3 -2 9q-3 10 -3 15v4q1 6 8 7q10 -1 11 -12v-5q0 -12 6 -30q6 -15 21 -34q3 -4 9 -11q3 -3 4 -5q1 -1 3 -2q7 -8 9 -13q4 -10 -3 -13q-10 -6 -25 15q-13 18 -25 52q0 1 -1 5q-2 4 -6 15v-11q0 -23 -5 -48
q-3 -22 -12 -43q-25 -61 -68 -62h-4q-52 3 -55 61q0 44 31 104q7 13 8 17q-9 -7 -18 -12q-10 -8 -19 -8q-6 0 -10 5l-1 1q-7 6 -7 12q7 -5 14 -5q7 1 13 4q14 6 24 14l3 3q7 6 11 6q3 0 6 -3q7 -5 10 -9q3 -7 -1 -11q-1 -2 -4 -4t-4 -3l-6 -9q-5 -6 -7 -9q-33 -54 -33 -93
q2 -43 35 -47zM248 164q-1 21 -21 22q-21 -1 -22 -22q2 -19 22 -21q20 1 21 21zM227 191q24 -2 26 -27q-1 -25 -26 -26q-25 2 -27 26q2 25 27 27z" />
    <glyph glyph-name="uni3075" unicode="&#x3075;" 
d="M156 13v-4q0 -12 -10 -21q-9 -7 -26 -1q-22 9 -41 23q4 -1 12 -4q18 -6 27 -6t15 6q10 13 -4 40q-1 3 -3 6q-62 -25 -71 -54q-1 -12 -9 -11q-3 0 -8 4q-1 1 -2 1q-2 1 -6 4q-5 3 -7 4q-8 7 -8 18v2q1 9 4 17q3 3 4 1q-4 -21 11 -23q12 0 31 11q23 12 45 24q1 0 3 1
q4 2 11 4l-3 6q-6 10 -13 26q0 1 -1 4q-2 5 -2 8q0 5 9 14q2 3 3 4l3 3q11 10 13 17q5 11 -1 16q-2 1 -5 4q-7 5 -11 9q-8 11 -8 25h2q7 -17 30 -27q16 -6 16 -16q0 -9 -11 -14q-10 -6 -19 -13l-4 -4q-11 -9 -11 -17q0 -4 4 -11q1 -2 2 -3q2 -4 8 -11q4 -4 6 -7q4 -4 7 -9
q6 2 12 3q36 4 66 -13q23 -15 25 -41q1 -8 -8 -8q-4 0 -10 5q-2 1 -4 1q-2 1 -3 1q-6 0 -19 2q-8 1 -12 1l1 1q3 1 8 2q10 2 16 4h1q6 2 6 5q-5 35 -57 37q-5 0 -18 -2q9 2 -3 0q17 -22 17 -44z" />
    <glyph glyph-name="uni3076" unicode="&#x3076;" 
d="M185 130q38 -1 34 -28q-8 -5 -22 14q-8 11 -12 14zM209 141v2q39 -1 43 -25q-6 -8 -17 4q-14 14 -26 19zM97 191h1q2 -13 26 -23q22 -10 22 -21q0 -8 -18 -18q-27 -15 -29 -33q0 -6 16 -26q7 -8 11 -13q15 4 30 4q64 -4 72 -55q0 -12 -17 -3q-5 3 -7 3q-7 1 -30 1
q16 5 31 12q-2 36 -50 39q-15 0 -27 -3q17 -24 17 -43q-3 -24 -22 -28q-19 1 -55 26q61 -23 58 8q0 14 -11 34q-54 -18 -70 -52q-3 -15 -9 -16q-2 0 -4 1q-2 2 -3 2q-1 1 -4 3q-22 10 -21 28q0 7 5 19q4 4 4 1q-3 -16 4 -22q9 -6 21 1q1 1 3 2q40 26 73 35q-3 5 -8 13
q-11 16 -11 20q-4 12 16 35q13 15 13 22q0 5 -9 12q-18 14 -18 35z" />
    <glyph glyph-name="uni3077" unicode="&#x3077;" 
d="M220 146q-19 -1 -21 -21q1 -18 21 -19q18 1 19 19q-2 19 -19 21zM194 125q1 25 26 26q22 -2 24 -26q-2 -23 -24 -24q-24 2 -26 24zM12 24v4v1l2 8q2 1 4 1q0 -16 11 -22q8 -5 25 7l1 1q21 14 42 24q3 1 8 3q10 5 16 6q-8 12 -14 25q-8 17 0 28q6 6 11 13q6 6 11 14
q6 10 0 15l-3 3q-5 3 -13 11q-7 7 -7 19v4h1q2 -7 11 -13q11 -7 21 -12q6 -3 11 -7q7 -8 3 -16q-2 -4 -7 -5q-1 0 -3 -1q-15 -6 -22 -13l-2 -2q-11 -10 -11 -18t12 -22l3 -3q8 -7 14 -16q8 2 15 2h4q23 0 43 -8q21 -8 30 -19q10 -12 10 -26q0 -10 -6 -10q-3 0 -7 2
q-4 5 -11 7q-7 1 -15 1h-20q11 3 20 6q13 3 15 9q0 11 -17 23q-13 8 -32 12q-13 2 -27 -1q5 -5 6 -10q6 -11 6 -28v-5q1 -17 -9 -25q-4 -4 -12 -4h-4q-3 1 -5 1q-14 3 -38 20q-5 3 -7 5q4 -1 13 -4q5 -2 7 -3q10 -3 19 -4q10 0 16 7q10 13 -6 41q-1 3 -2 4q-12 -5 -24 -11
q-17 -9 -32 -22q-11 -11 -13 -17q0 -2 -1 -5q0 -3 -1 -5q-1 -7 -6 -7q-1 0 -4 1q2 -1 -1 1q-4 4 -10 7q-19 11 -19 28z" />
    <glyph glyph-name="uni3078" unicode="&#x3078;" 
d="M6 90l1 -1q6 -4 10 -4q10 0 28 16l4 4q4 3 11 10q7 6 10 9q15 15 27 14q16 0 39 -23q3 -4 4 -5q7 -9 16 -15q9 -8 18 -14q23 -18 49 -31q3 -2 10 -5q6 -3 9 -5q5 -3 8 -8q3 -9 -2 -13q-4 -3 -14 2q-12 6 -22 13q-48 31 -76 64q-2 3 -7 8q-8 11 -14 16q-14 12 -25 6
q-9 -5 -23 -19q-3 -4 -5 -6q-11 -11 -15 -21v-2q-1 -6 -5 -8q-3 -1 -6 -1q-12 1 -21 7q-10 6 -9 12z" />
    <glyph glyph-name="uni3079" unicode="&#x3079;" 
d="M174 151q22 1 33 -7q13 -12 3 -19q-4 0 -13 9q-14 14 -23 17zM201 170q22 0 33 -7q13 -10 3 -17q-6 0 -17 10q-12 11 -19 14zM4 87q1 0 4 -2q11 -9 22 1q9 6 24 21q29 27 44 26q12 0 49 -34q26 -24 40 -34q8 -6 38 -22q14 -7 15 -8q12 -9 12 -14q0 -18 -26 -3
q-49 27 -102 91q-16 18 -26 18q-4 0 -15 -10q-2 -1 -3 -2q-25 -24 -31 -37q-4 -12 -13 -12q-28 3 -32 21z" />
    <glyph glyph-name="uni307A" unicode="&#x307a;" 
d="M204 174q24 -2 26 -27q-2 -25 -25 -26q-26 1 -28 26q1 26 27 27zM225 147q-1 21 -21 22q-21 -1 -22 -22q2 -19 23 -21q19 1 20 21zM4 90l1 -1q12 -6 18 -3q8 4 14 10q10 8 27 25q3 3 9 7q5 5 8 7q1 0 2 1q5 5 10 5q7 0 9 -1q7 -3 20 -14l4 -4q22 -21 44 -39
q23 -19 57 -36l6 -3q6 -3 8 -5q11 -9 11 -15q0 -8 -4 -9q-12 0 -30 14q-10 7 -21 16q-51 39 -76 68q-6 8 -14 15q-4 5 -11 5q-6 0 -12 -5q-16 -13 -28 -30q-6 -9 -11 -19v-1q-1 -6 -6 -8q-3 -2 -9 0h-1q-9 3 -17 9q-8 5 -8 11z" />
    <glyph glyph-name="uni307B" unicode="&#x307b;" 
d="M19 48v18q0 25 9 63q3 14 6 27q3 17 -2 25q-3 3 -5 8q5 1 15 -9l1 -1q8 -10 8 -19v-4q0 -2 -2 -7l-1 -1q-9 -16 -12 -33q-6 -24 -6 -49v-19q0 -17 5 -32h3q10 19 23 60q4 13 6 20q-3 -30 -11 -57q-8 -26 -8 -38q0 -3 2 -9q1 -6 1 -9q-1 -7 -9 -8q-7 0 -13 15q-6 11 -7 26
q-3 17 -3 33zM216 135l6 -2q1 -5 -5 -9q-4 -2 -13 -6q-2 -1 -3 -1q-2 -1 -7 -3q-7 -2 -10 -3v-23q0 -28 2 -57q33 -5 48 -16q4 -4 4 -10q0 -5 -5 -5q-4 0 -10 2q-1 1 -2 1q-16 8 -34 14v-2q0 -16 -10 -26q-12 -10 -27 -10h-4q-14 0 -26 7q-12 8 -13 19v2q3 26 51 27
q9 0 18 -1q0 11 -1 33t-1 33v9q-18 -5 -37 -5h-5q-15 0 -25 11q16 -7 45 1q11 2 22 6v28v3q-1 3 -1 5t-3 5q-2 3 -3 5h-3q-15 -2 -31 -2h-8q-13 0 -23 8v2q19 -5 58 5q3 1 5 1q1 0 4 1q15 4 23 4t20 -6q3 -2 2 -5q0 -5 -10 -5h-5q-6 0 -19 -2q-6 -1 -9 -1q6 -3 11 -8
q5 -7 5 -14q0 -5 -2 -14q-1 -5 -1 -7q3 1 9 4l9 3q1 0 3 1q8 4 11 3zM149 23h-2q-30 -1 -32 -17q3 -17 29 -19q22 1 29 13q3 8 3 18v2q-13 3 -27 3z" />
    <glyph glyph-name="uni307C" unicode="&#x307c;" 
d="M52 98v-3q-6 -33 -15 -66q-6 -17 -2 -33q1 -5 1 -6q0 -8 -8 -8q-22 6 -24 76q0 32 10 76q6 24 6 34q0 7 -5 18q-1 2 -1 3q21 -9 24 -28q0 -3 -5 -16q-19 -47 -19 -80q1 -43 11 -42q7 16 18 50q6 17 9 25zM220 173q29 -6 32 -25q0 -6 -4 -7t-7 4q-1 1 -2 3q-10 19 -19 25z
M198 159q24 -3 27 -23q0 -6 -5 -6t-7 6q-2 11 -15 23zM132 29q-31 0 -32 -20q1 -15 26 -17q33 -1 32 33q-11 4 -26 4zM89 174v1q14 -5 63 6q20 5 25 5q1 0 5 -1q14 -3 14 -8q1 -8 -18 -7q-12 0 -22 -2q13 -6 13 -20q0 -3 -1 -10t-1 -13q14 5 18 8q14 9 18 2q2 -8 -13 -14h-1
q-11 -6 -23 -10q0 -4 0 -3q0 -30 5 -70q1 -3 1 -4q21 -3 37 -13q11 -6 11 -11q-1 -8 -14 -4q-2 1 -5 3q-18 9 -28 12q1 -38 -46 -37q-33 1 -35 20q-1 32 52 33q7 0 14 -1q-2 35 -2 72q-48 -14 -67 9q22 -9 67 5q3 34 -8 46q-16 -3 -27 -3q-16 1 -32 9z" />
    <glyph glyph-name="uni307D" unicode="&#x307d;" 
d="M4 52v34q0 24 9 60q4 11 4 21q0 8 -4 15q0 1 -2 4q-1 3 -2 5q8 -2 14 -9q10 -12 10 -20q0 -6 -3 -10q-1 -2 -3 -7q-7 -14 -9 -21q-6 -19 -6 -41v-16q0 -3 1 -9v-7q1 -14 7 -25q4 0 4 2q11 30 20 62v-3q-3 -22 -8 -43q-1 -4 -2 -13q-4 -18 -4 -27v-4q0 -13 -7 -13
q-4 0 -9 9l-1 1q-5 12 -6 22q0 4 -1 11q-2 14 -2 22zM252 168q-2 -23 -25 -25q-24 2 -26 26q2 24 26 25q23 -2 25 -26zM227 149q18 1 19 19q-1 20 -19 21q-20 -1 -21 -20q1 -19 21 -20zM119 165h-6q-13 0 -27 8v2q9 -2 17 -2q13 0 34 6q4 1 11 3q14 4 20 4h4h1q14 -3 15 -8
q0 -3 -1 -4q-2 -1 -5 -1h-5q-7 0 -19 -3q-6 -1 -9 -2l-1 -1q23 -12 13 -29v-9q3 1 8 4q3 2 5 3q2 0 5 2q5 3 7 3q9 -1 10 -7q0 -4 -8 -7q-12 -7 -26 -12l-1 -1v-24q1 -24 4 -47q1 0 2 -1q23 -5 33 -11q12 -8 12 -15q0 -6 -4 -6t-10 3q-7 3 -15 8q-8 4 -17 7v-8v-4
q1 -11 -8 -16q-9 -9 -23 -8h-4q-26 1 -38 12q-12 19 14 35q13 6 29 6h4q6 0 12 -1v3q-2 13 -2 29v34q-19 -7 -36 -7q-14 0 -28 12v2q2 0 7 -1q6 -2 9 -2q26 0 48 11v16q0 16 -9 25q-11 -1 -22 -1zM126 34h-4q-24 -1 -25 -17q1 -14 21 -17q14 -1 22 0q13 3 13 19v5v7
q-13 3 -27 3z" />
    <glyph glyph-name="uni307E" unicode="&#x307e;" 
d="M121 200v2q26 -1 32 -17q0 -2 -2 -8q-6 -16 -6 -28v-6q21 4 40 10l2 1q10 0 15 -7q3 -6 -6 -8q-7 -3 -51 -9v-37q1 0 2 1h1h3q26 1 27 15q4 -4 13 -6q7 -2 7 -5q3 -13 -53 -19q0 -10 2 -36q2 -13 2 -18q50 -11 61 -28q3 -13 -4 -13q-5 0 -9 3q-16 13 -47 23
q-3 -39 -50 -39q-47 1 -51 31q2 27 58 27q15 0 30 -2q-3 51 -3 48v3q-15 -1 -28 -1q-43 0 -49 21q28 -13 77 -6v37q-18 -2 -35 -2q-42 1 -53 22q19 -11 47 -11q23 0 41 3v37q1 18 -13 22zM87 21q-26 -2 -30 -19q4 -19 40 -20q37 0 39 32q-23 7 -49 7z" />
    <glyph glyph-name="uni307F" unicode="&#x307f;" 
d="M135 168v1q-19 -5 -34 -17q-7 -6 -11 -6q-14 0 -25 21l1 3q1 -1 4 -3q6 -5 9 -5q14 0 60 21q18 -8 20 -22q0 -5 -11 -14l-3 -3q-8 -9 -33 -49q-7 -11 -10 -16h2q44 0 83 -14q10 36 -6 52q33 -8 20 -58q37 -16 38 -33v-1q-1 -4 -4 -4t-6 1t-10 7q-14 9 -23 14
q-25 -52 -61 -64q31 31 47 71q-42 21 -84 21q-36 -59 -49 -71q-12 -11 -20 -7q-9 6 -11 24q5 51 72 61q41 69 45 90zM29 23q1 -17 7 -18q8 0 19 17q2 3 3 4q2 4 8 13q13 19 19 31q-53 -8 -56 -47z" />
    <glyph glyph-name="uni3080" unicode="&#x3080;" 
d="M14 149h1q14 -7 21 -7q18 1 35 4l2 20q0 20 -19 24v2q22 6 37 -15q0 -2 -3 -12q-2 -10 -4 -16q10 3 25 9q11 4 13 4q11 0 15 -5q2 -4 -6 -7q-20 -7 -49 -14q-1 -13 -3 -31q10 -6 10 -19q0 -10 -12 -40q-10 -24 -10 -31q-10 -23 55 -20q77 -3 64 40q0 2 -1 6q-8 65 -8 78
q-1 20 18 19q46 -3 48 -49q0 -10 -7 -10q-3 0 -7 3q-7 5 -16 5h-12q1 1 5 2q12 6 15 13q-1 27 -29 33q-12 -1 -13 -15q9 -67 28 -109q1 -2 2 -3q-3 -29 -86 -29q-70 -2 -64 32q0 10 2 19q-35 16 -34 43q6 29 42 33l2 28q-18 -4 -31 -4q-17 2 -26 19zM63 48l6 45
q-26 6 -34 -20q-1 -20 28 -25z" />
    <glyph glyph-name="uni3081" unicode="&#x3081;" 
d="M121 189v2q34 -3 29 -33q0 -5 -2 -13q-1 -5 -1 -7h4q89 -1 90 -79q-6 -73 -93 -83v2q3 1 9 4q69 30 68 81q-3 61 -75 64q-3 0 -6 -1q-14 -42 -45 -82q5 -7 10 -12q9 -14 0 -17q-10 -1 -23 12l-1 1q-32 -33 -52 -36q-13 0 -18 39q1 39 39 71q-2 7 -5 21q-8 35 -13 42
q16 -2 22 -34q2 -12 5 -22q32 22 69 27q3 10 4 20q4 24 -15 33zM57 89q-38 -32 -33 -63q2 -16 10 -16q19 1 44 28q-11 17 -21 51zM67 96q9 -24 24 -43q24 33 37 71q-33 -7 -61 -28z" />
    <glyph glyph-name="uni3082" unicode="&#x3082;" 
d="M157 103l1 1q41 -39 42 -81q-3 -53 -66 -57q-51 0 -51 69q0 8 2 16q-28 14 -29 33q0 7 27 26q10 7 14 10v2q-35 11 -36 37h1q6 -13 37 -23q3 -1 5 -2q3 13 6 22q14 39 -17 47v2q32 5 40 -25q0 -8 -5 -14q-1 -2 -2 -5q-9 -18 -13 -32q7 -3 7 -9q1 -5 -13 -10
q-7 -26 -12 -50q6 -1 18 -2q22 -1 25 -3q5 -6 3 -10q-2 -3 -11 -3q-20 0 -37 6q0 -2 -1 -5q-1 -6 -1 -15q0 -49 41 -49q52 3 54 49q1 38 -29 75zM96 106q-32 -6 -37 -22q0 -16 27 -22q2 15 10 44z" />
    <glyph glyph-name="uni3083" unicode="&#x3083;" 
d="M34 88v2q20 -11 38 3q8 5 15 9q-5 6 -8 11q-13 12 -9 25q5 13 23 13q2 0 22 -1q15 -1 16 -1q5 0 7 2q0 5 -5 14q-2 3 -3 5q17 -7 22 -19q5 -15 -6 -18q-2 1 -8 3q-32 13 -45 13q-29 -2 1 -38q1 -1 1 -2q1 -1 1 -2q49 25 85 26q40 -1 42 -29q-1 -32 -37 -33q-17 0 -40 13
v1q20 -6 31 -6q34 1 35 27q-1 21 -30 21q-38 -1 -80 -27q61 -79 62 -93q2 -10 -2 -14q-10 -5 -15 7q-6 31 -54 95q-5 -3 -8 -6q-22 -30 -51 -1z" />
    <glyph glyph-name="uni3084" unicode="&#x3084;" 
d="M148 91v2q22 -11 39 -11q44 2 47 36q-3 26 -43 28q-41 0 -97 -34q43 -56 79 -120q5 -20 -7 -21q-12 2 -17 22q-25 60 -65 112q-11 -7 -26 -20q-2 -1 -3 -2q-6 -13 -22 -7q-21 9 -26 25q1 0 2 -1q10 -8 21 -7q7 0 46 21q-1 1 -3 4l-3 3l-6 6q-13 11 -12 24q0 24 31 24
q7 0 24 -2q18 -3 26 -3q15 7 -4 29q21 -7 30 -24q8 -20 -8 -21q-5 0 -25 7q-30 12 -43 12q-17 -1 -18 -16q0 -10 15 -27q3 -4 5 -6q2 -3 3 -4q65 33 106 34q53 -1 55 -42q-4 -39 -48 -41q-24 0 -53 20z" />
    <glyph glyph-name="uni3085" unicode="&#x3085;" 
d="M67 30v-2q0 -7 -4 -7q-14 3 -15 43q0 11 3 31q6 34 -6 46q17 -2 19 -21q0 -2 -2 -11q-6 -22 -6 -39q1 -17 4 -23q9 31 31 55q4 52 32 57q19 0 27 -27q3 1 6 1q52 -3 55 -55q-2 -55 -59 -57q-4 0 -9 1q-9 -19 -31 -32h-3q16 14 25 33q-41 15 -43 72q-24 -29 -24 -65z
M148 29q51 1 52 50q-3 45 -47 48h-2q4 -16 4 -48t-8 -50h1zM137 30q7 20 7 45q0 32 -3 51q-28 -6 -48 -28q4 -56 44 -68zM140 131q-6 24 -19 23q-22 -5 -28 -50q22 22 47 27z" />
    <glyph glyph-name="uni3086" unicode="&#x3086;" 
d="M39 43h2q11 45 39 74q6 71 40 72q25 -1 36 -33q5 1 8 1q68 -4 72 -65q-5 -77 -77 -82h-12q-15 -27 -42 -39h-2q17 15 31 42q-54 17 -55 87q0 -1 0 6q-28 -39 -29 -86q0 -11 -4 -10q-22 3 -23 54q0 18 5 47q9 40 -8 56q23 -2 24 -25q0 -6 -4 -24q-6 -29 -6 -45
q0 -15 5 -30zM143 154q-6 29 -26 29q-27 -2 -32 -61q28 26 58 32zM148 92q0 34 -4 58q-34 -8 -60 -38v-11q1 -65 54 -78q10 27 10 69zM156 21q60 4 62 72q-2 55 -59 58h-1q6 -23 6 -56q0 -45 -12 -74h4z" />
    <glyph glyph-name="uni3087" unicode="&#x3087;" 
d="M190 122v-3q-38 -15 -59 -3v-15q0 -18 7 -60q46 -8 52 -29q0 -7 -4 -7q-7 0 -12 5q-18 11 -34 17v-4q0 -28 -33 -28q-39 2 -40 23q3 23 53 24h7q0 9 -2 32q-2 27 -2 33v43q0 14 -13 20q12 9 29 -11q0 -3 -3 -15q-5 -18 -5 -27h2q15 0 37 11q5 2 6 2q3 0 8 -4q4 -3 6 -4z
M104 33q-30 0 -31 -15q3 -15 33 -16q22 1 23 23l-1 5q-12 3 -24 3z" />
    <glyph glyph-name="uni3088" unicode="&#x3088;" 
d="M122 100v78q0 10 -18 16v2q25 8 37 -18q0 -1 -2 -7q-6 -19 -6 -30v-14h1q11 0 37 11q12 5 15 5q4 0 12 -5q5 -2 7 -3q-1 -13 -50 -16q-12 0 -22 5v-31q0 -8 3 -39q2 -17 3 -25q59 -10 68 -29q3 -6 0 -12q-4 -7 -17 -1q-19 15 -49 27v-12q0 -32 -39 -34q-48 1 -54 28
q4 33 60 35h9q6 -1 10 -1q-5 55 -5 70zM102 21q-44 0 -46 -21q2 -20 38 -21q33 1 34 30v9q-12 3 -26 3z" />
    <glyph glyph-name="uni3089" unicode="&#x3089;" 
d="M70 120v-37q0 -10 -2 -29q-1 -8 -1 -12q3 0 13 7q40 28 78 28q51 -2 53 -42q-1 -60 -91 -61h-7l1 1q80 19 81 60q-1 34 -36 36q-57 -3 -82 -46q-1 -2 -2 -5q-3 -13 -11 -13q-13 4 -18 19v3q9 18 13 57q3 25 6 37q2 14 29 28q16 9 16 14q0 2 -7 10q-15 18 -14 27h2
q3 -8 20 -18q23 -14 23 -28q-2 -12 -14 -9q-44 5 -50 -27z" />
    <glyph glyph-name="uni308A" unicode="&#x308a;" 
d="M111 -32h-2q58 52 61 146q-4 72 -31 75q-23 0 -38 -57q-12 -34 -9 -58q1 -4 1 -5q0 -15 -6 -16q-16 -3 -16 46q0 21 4 55q2 16 2 20q0 12 -6 25q17 -9 19 -24q0 -3 -2 -17q-8 -43 -1 -44q25 80 57 80q41 -4 42 -88q-2 -103 -75 -138z" />
    <glyph glyph-name="uni308B" unicode="&#x308b;" 
d="M111 23q-20 -2 -22 -18q3 -19 37 -21q12 0 21 3q-7 33 -36 36zM147 176v2q-22 0 -45 -15q-6 -4 -8 -4q-24 9 -20 28h2q6 -17 52 0q16 6 20 6q9 0 14 -11q3 -6 6 -8q0 -1 1 -2q2 -2 2 -3q0 -6 -10 -10q-3 -1 -4 -2q-8 -4 -60 -69q-10 -13 -12 -16l2 -1q34 25 63 24
q61 -2 64 -50q-3 -69 -83 -71q-44 1 -48 30q4 23 31 25q36 -1 48 -37q35 14 36 50q-1 47 -46 48q-43 -1 -87 -57q-7 -8 -17 -7q-8 3 -5 12q2 7 12 14q9 8 15 14q47 59 77 110z" />
    <glyph glyph-name="uni308C" unicode="&#x308c;" 
d="M57 118v2q-5 -2 -16 -11t-14 -8q-16 9 -19 21l2 1q16 -17 49 18v-1q0 4 1 10q1 13 1 24q0 15 -13 21v2q20 6 32 -20q0 -5 -3 -8q-6 -12 -10 -33q10 -8 10 -12q0 -3 -2 -5q-12 -16 -16 -34h1q59 73 96 72q22 -1 23 -28q0 -8 -6 -44q-8 -51 -8 -68q-3 -21 22 -19
q40 0 66 20q-18 -32 -64 -34q-39 -2 -37 49q0 24 8 70q5 25 5 32q1 16 -14 16q-38 -1 -91 -82v-18q0 -13 4 -54l1 -8q-1 -16 -9 -21h-1q-1 1 -2 1q-2 13 -16 35q-3 5 -4 8v2q9 -9 18 -16h1q1 2 1 4v56q-14 -23 -25 -47q-4 -12 -13 -15q-11 -2 -12 7q0 3 4 9q1 3 2 4
q42 69 48 102z" />
    <glyph glyph-name="uni308D" unicode="&#x308d;" 
d="M84 80l1 -1q51 22 77 22q60 -1 62 -51q-3 -74 -123 -76v2q107 20 107 79q0 38 -45 40q-56 -2 -102 -46q-1 -1 -3 -4q-11 -17 -22 -10q-9 9 5 21q16 9 28 23q75 80 75 98q-10 2 -35 -12q-10 -6 -12 -6q-6 0 -14 9l-6 6q-2 2 -2 8q-1 3 -1 4h2q11 -25 64 5q1 1 3 2q1 1 2 1
q12 -5 20 -23q0 -5 -6 -8q0 1 -1 0q-7 -4 -33 -35q-25 -30 -41 -48z" />
    <glyph glyph-name="uni308E" unicode="&#x308e;" 
d="M95 78v-5q42 37 70 36q44 -3 47 -43q-5 -59 -80 -61q62 18 67 62q-1 33 -38 34q-32 -1 -66 -35v-2v-34q0 -5 1 -14q1 -8 1 -12q-1 -7 -6 -9h-1q-1 1 -2 1q-3 14 -23 33q-2 -4 -5 -11q-2 -8 -4 -9q-3 -2 -8 -2q-4 3 -4 9q0 3 8 14q3 3 4 5q12 16 34 51q1 3 2 4v2v15
q-11 -5 -19 -14h-2q-1 1 -4 2q-13 7 -12 16q1 0 3 -2q6 -3 9 -3q17 2 28 19q0 7 1 18q4 23 -7 28v2q18 -1 22 -19q0 -3 -4 -11q-7 -13 -7 -21q18 -8 6 -21q-11 -13 -11 -23zM76 56v-2l13 15v10q-6 -12 -13 -23zM85 15h2l2 45q-2 -3 -8 -10q-3 -3 -14 -18q9 -9 18 -17z" />
    <glyph glyph-name="uni308F" unicode="&#x308f;" 
d="M50 16l23 -18l2 2q0 2 1 14q2 25 4 43q-15 -15 -24 -31q-1 -1 -3 -5q-2 -3 -3 -5zM78 196v3q34 -12 24 -34q-5 -3 -10 -28q3 -2 8 -7q5 -4 7 -7v-4q-1 -4 -6 -8l-2 -2q0 -1 -2 -2q-6 -9 -10 -16q-1 -11 -1 -20v-2q43 48 86 48q63 -3 66 -54q-6 -75 -104 -79v2
q80 22 85 75q-3 45 -48 48q-41 0 -85 -46v-41q0 -7 2 -22q1 -12 1 -17q0 -15 -8 -15q-5 0 -6 8q-1 1 -1 2q-9 20 -24 37q-3 -7 -7 -18q-3 -6 -3 -7q-18 -13 -21 4q-1 10 12 22q30 35 51 75q0 9 1 19v4q-14 -5 -27 -16q-23 6 -23 24q1 0 4 -2q9 -6 14 -6q10 -1 30 17l4 4
q4 23 4 46q-1 9 -11 15zM62 50v-2l3 -1q4 3 14 14q-8 -9 1 2q0 4 1 11v8q-3 -6 -11 -18q-6 -10 -8 -14z" />
    <glyph glyph-name="uni3090" unicode="&#x3090;" 
d="M147 21q-15 -2 -16 -18q3 -18 24 -19q21 1 37 17q-18 20 -45 20zM41 45q-6 -12 -6 -22q1 -17 12 -25q7 -4 47 81q-43 -20 -53 -34zM72 181h3q6 -18 63 8q12 -5 17 -21q0 -8 -8 -14l-3 -3q-6 -5 -8 -9q-2 -5 -7 -14q-4 -7 -13 -26q22 7 42 7q67 -1 69 -58q-7 -69 -61 -77
q-37 2 -41 26q3 29 33 31q22 0 44 -17q11 16 11 41q-1 45 -44 46q-27 0 -60 -15q-5 -10 -13 -29q-34 -80 -52 -75q-13 3 -15 32q1 56 73 84q16 35 33 72q1 4 -3 5q-11 -1 -29 -14q-9 -6 -11 -6q-19 9 -20 26z" />
    <glyph glyph-name="uni3091" unicode="&#x3091;" 
d="M192 -18h-4q2 2 8 5q13 7 13 13q-6 16 -29 18q-17 0 -38 -25q-15 -17 -23 -17q-5 0 -13 11q-15 18 -28 18q-26 0 -44 -26q-1 -1 -1 -2q-7 -3 -14 6q-7 13 14 22q37 20 73 44q-16 6 -17 17q2 23 30 24q24 0 25 -15q0 -10 -10 -19q43 11 46 45q-2 28 -38 29q-29 2 -51 -36
q-13 -20 -19 -15q-10 6 5 21q53 50 63 81q-13 0 -29 -9q-10 -6 -15 -6q-19 4 -25 20q2 0 5 -2q7 -4 13 -4q10 0 42 11q16 6 19 6h2q2 -2 6 -4q9 -7 9 -12q0 -4 -9 -7q-4 0 -5 -1q-18 -23 -38 -44q22 9 34 9q45 -1 47 -38q-8 -48 -70 -53h-5q-5 -3 -17 -10q-32 -17 -47 -30
q1 0 4 1q8 2 13 2q12 0 26 -9q11 -6 18 -6q10 0 25 12q20 16 35 16q55 -4 61 -43q0 -3 -2 -5q-2 -1 -5 -1q-2 0 -4 2q-1 1 -2 3q-4 5 -8 5t-12 -1q-9 -1 -14 -1zM132 75q0 12 -15 12q-20 -2 -22 -18q1 -11 20 -14q17 10 17 20z" />
    <glyph glyph-name="uni3092" unicode="&#x3092;" 
d="M182 117v2q29 7 37 -30q-1 -1 -5 -1q-1 0 -2 1q-2 1 -6 1q-39 -11 -70 -27v-9q1 -8 1 -13q1 -26 -7 -23q-6 1 -6 17q0 12 -1 22q-47 -25 -47 -52q-7 -25 54 -23q24 0 41 4q2 1 3 1q13 -1 14 -11q-1 -9 -15 -9h-8q-11 -1 -18 -1q-84 -1 -79 34q0 35 54 67q-3 29 -22 28
q-26 0 -42 -31q-4 -9 -7 -13q-3 -3 -6 -4q-9 5 -6 22q2 4 8 8l2 2q21 16 45 60q-11 -1 -19 -1q-26 1 -37 24l2 1q11 -14 41 -14q11 0 18 1q11 22 11 37q-1 7 -13 12v3q30 -1 32 -18q0 -3 -9 -18q-1 -2 -2 -3q-3 -6 -6 -11q16 3 35 11q7 2 8 2q15 -1 17 -7q-2 -9 -67 -18
q-13 -24 -28 -46q14 7 28 7q24 2 29 -27q11 5 31 15q17 8 25 12q7 5 5 12q-3 5 -13 4z" />
    <glyph glyph-name="uni3093" unicode="&#x3093;" 
d="M109 184v3q25 6 32 -22q0 -7 -10 -17q-2 -1 -3 -2q-22 -26 -54 -83v-2q20 13 38 13q23 0 28 -45q5 -37 22 -37q47 13 78 55v-2q-32 -66 -78 -69q-29 -1 -36 54q-4 39 -18 39q-44 -8 -69 -83v-1q-3 -9 -7 -9q-5 0 -12 11l-2 2q-1 6 11 22q4 5 5 7q8 15 35 57q55 89 53 97
q0 9 -13 12z" />
    <glyph glyph-name="uni309B" unicode="&#x309b;" 
d="M121 197q7 2 19 -3q1 0 3 -1q8 -3 19 -10t11 -16q0 -8 -5 -13q-5 -6 -8 -3t-7 12q-4 8 -15 16q-3 3 -10 8l-6 6q-4 2 -5 3q0 1 4 1zM97 170q18 -4 28 -13q9 -6 12 -15q2 -7 -5 -15q-8 -7 -11 -2l-3 6q-2 5 -4 7q-3 9 -10 16q-6 7 -16 14q-5 4 -3 4q1 0 12 -2z" />
    <glyph glyph-name="uni309C" unicode="&#x309c;" 
d="M200 149q8 4 8 13t-9 13q-6 4 -16 0q-9 -5 -8 -14q2 -9 9 -13q8 -3 16 1zM178 140q-13 6 -15 21q-1 14 12 22q14 8 30 1q15 -7 14 -22q0 -15 -13 -21q-15 -7 -28 -1z" />
    <glyph glyph-name="uni309D" unicode="&#x309d;" 
d="M115 145q16 -10 28 -22q8 -7 22 -22q-10 12 1 -2t14 -20q5 -8 3 -17q-2 -8 -7 -12q-4 -4 -12 -2q-9 3 -22 6q-14 2 -25 3q-11 2 -11 3q0 3 10 4q10 2 25 3q13 1 13 5q0 3 -9 17q-4 8 -19 27q-3 3 -4 5q-16 19 -34 29q-10 4 -11 6t7 1q19 -3 31 -12z" />
    <glyph glyph-name="uni309E" unicode="&#x309e;" 
d="M164 196q2 0 6 -1q9 -2 15 -3q12 -3 24 -10q10 -7 13 -16q2 -8 -3 -14q-6 -7 -13 3q-1 1 -2 3q-6 7 -15 16q-9 6 -14 11q-5 3 -11 4q-8 2 -8 5q-1 2 8 2zM141 164q8 -1 17 -3q9 -3 19 -9q10 -7 11 -16q2 -9 -4 -15q-7 -6 -13 5q-6 12 -16 20q-10 9 -16 11q-6 3 -6 5
q-1 2 8 2zM112 130q21 -13 32 -24q10 -10 22 -23q11 -13 14 -21q5 -7 3 -15q-2 -9 -7 -13t-12 -1q-2 0 -7 1q-9 2 -15 3q-7 2 -20 3q-4 1 -5 1q-11 1 -11 4q0 2 10 3q4 1 13 1q7 1 12 1q13 2 13 6t-9 17q-8 13 -28 34t-38 30q-10 5 -11 7q0 2 8 1q15 -1 36 -15z" />
    <glyph glyph-name="uni30A1" unicode="&#x30a1;" 
d="M45 154h2l2 -2q8 -9 17 -9q1 0 39 5q59 8 73 10q1 0 3 2q2 3 4 2q9 -2 21 -16q9 -11 5 -16h-4q-5 1 -7 0q-7 -2 -24 -10q-25 -11 -38 -14q-12 -69 -58 -114h-3q45 64 45 124q-1 3 -7 7q-2 1 -3 2v1q15 4 29 -15h2q50 29 41 38q-79 -4 -110 -18l-1 -1q-2 -3 -6 -3
q-20 10 -22 27z" />
    <glyph glyph-name="uni30A2" unicode="&#x30a2;" 
d="M23 188l3 1q4 -14 20 -15q2 0 44 6q87 11 106 13q1 1 3 2q1 2 2 2h1q43 -33 26 -43h-6t-7 -1q-2 -1 -13 -6q-40 -17 -58 -21q-31 -126 -84 -152q56 74 62 157q-1 16 -14 20q22 8 37 -20v-3q57 33 57 52q-80 0 -141 -22l-1 -1q-5 -6 -12 -6q-22 6 -25 37z" />
    <glyph glyph-name="uni30A3" unicode="&#x30a3;" 
d="M155 88v-47q0 -7 1 -27q1 -7 1 -8q0 -13 -6 -14q-8 3 -10 20q3 11 3 21v55q0 9 -3 15q-35 -37 -72 -50h-2q72 52 103 111q2 3 -3 9q-2 1 -2 2q15 -2 24 -25q0 -2 -3 -2q-4 -1 -7 -2q-1 -1 -3 -4q-19 -23 -32 -37q11 -7 11 -17z" />
    <glyph glyph-name="uni30A4" unicode="&#x30a4;" 
d="M47 45h-1v2q109 79 138 145q0 4 -7 11q-2 3 -3 4l2 3q23 -9 35 -33q0 -1 -4 -2q-6 -2 -8 -4q-25 -34 -46 -55q12 -7 13 -21v-47q0 -15 2 -55v-10q-1 -13 -9 -15q-11 5 -12 28q0 2 1 7q4 16 4 33v61q0 12 -4 14q-38 -37 -101 -66z" />
    <glyph glyph-name="uni30A5" unicode="&#x30a5;" 
d="M109 157v2q12 9 27 -11q0 -2 -1 -4q-4 -4 -4 -15v-4q8 0 24 1h17q3 0 8 2t7 2h2q13 -10 14 -18l-9 -6q-27 -82 -85 -111h-2q63 57 74 123q-14 1 -67 -2q-28 -2 -36 -2h-6v-7q0 -9 2 -32q1 -7 1 -8q0 -9 -5 -9q-7 2 -9 13l1 11q2 17 2 18q0 23 -11 27q4 3 12 -2
q7 -4 11 -4q12 1 44 3v16q0 16 -11 17z" />
    <glyph glyph-name="uni30A6" unicode="&#x30a6;" 
d="M198 141v2q-17 0 -74 -4q-46 -4 -62 -4q0 -7 2 -34q1 -17 1 -20q0 -13 -7 -15q-11 -1 -12 19q10 64 -16 69q6 7 22 -3q6 -4 8 -5q3 0 32 2q19 1 29 2v16q-1 20 -16 28v1q4 6 18 2q17 -7 19 -15q0 -1 -2 -4q-6 -8 -6 -22v-5q18 2 52 3q7 1 11 1l4 1q6 3 7 3q14 -4 19 -22
q0 -2 -6 -6q-4 -3 -5 -4q-49 -125 -117 -145q73 56 99 159z" />
    <glyph glyph-name="uni30A7" unicode="&#x30a7;" 
d="M68 123l2 2q9 -6 21 -6q21 0 72 9q1 0 4 1q3 2 4 1q22 -6 14 -15q-3 -1 -9 0q-7 2 -12 2q-7 0 -26 -3q-9 -1 -14 -2q18 -8 16 -21q-2 -4 -4 -14v-2q-2 -17 -8 -32q2 0 7 1q13 1 24 1h32q1 0 4 1q4 2 5 1q22 -15 11 -21q-1 0 -5 1q-34 8 -65 8q-25 0 -64 -9q-12 -3 -14 -3
q-17 4 -22 22q9 -8 19 -8q1 0 12 1q30 3 48 4q4 28 4 42q0 18 -11 27q-14 -2 -25 -2q-9 0 -20 14z" />
    <glyph glyph-name="uni30A8" unicode="&#x30a8;" 
d="M16 53h1q8 -14 27 -14q2 0 26 2q29 3 47 4q5 29 5 56q0 24 -14 32q-19 -3 -29 -3q-22 4 -29 24q13 -8 27 -8q66 2 94 11q1 0 2 1q2 1 5 1q11 0 19 -8q10 -12 2 -13q-1 0 -4 1q-15 2 -26 2q-9 0 -42 -5q-8 -1 -12 -2q30 -11 28 -25q-3 -5 -4 -11q-1 -4 -4 -18
q-5 -26 -7 -34q52 4 81 5q1 0 3 1q3 2 4 1q11 -4 18 -11q9 -7 5 -15q-4 -2 -23 2q-36 8 -67 8q-43 0 -90 -13q-12 -3 -15 -3q-23 8 -28 32z" />
    <glyph glyph-name="uni30A9" unicode="&#x30a9;" 
d="M54 29h-3q52 42 75 88q-38 -5 -55 -14q-14 4 -20 22q9 -8 21 -8q2 0 30 3q23 3 34 4v16q0 16 -13 22v3q22 -3 27 -15q0 -2 -3 -5q-3 -4 -3 -7v-13q18 2 29 3q2 0 8 3q5 2 6 2q11 -2 19 -13q3 -7 -10 -5q-8 2 -32 4h-20v-58q0 -13 3 -45v-7q0 -9 -8 -9q-3 0 -6 4
q-2 3 -3 4q-4 5 -17 12q-4 3 -6 4v2l24 -5q4 -1 5 3v83q-28 -46 -82 -78z" />
    <glyph glyph-name="uni30AA" unicode="&#x30aa;" 
d="M29 144l3 2q8 -13 20 -13q4 0 47 4q31 3 47 5v26q0 17 -21 27q-1 3 3 4q30 -8 37 -19q0 -7 -6 -15v-22q5 0 15 1q10 0 15 1q7 0 14 6q38 -9 22 -23q-20 5 -54 5h-12v-134q0 -18 -8 -17q-2 0 -5 6q-2 4 -3 5q-7 7 -28 18q-4 3 -6 4q35 -12 36 -4v4q1 3 1 5v93
q-52 -75 -120 -98q70 44 106 116q-41 -2 -68 -12q-7 -2 -10 -2q-19 5 -25 27z" />
    <glyph glyph-name="uni30AB" unicode="&#x30ab;" 
d="M53 137l3 1q7 -12 17 -12q27 1 53 4q1 2 3 7q3 8 8 22q4 9 4 19q0 2 -1 4q-3 4 -13 8q-1 1 -2 1q3 3 4 3q6 0 16 -3q-1 0 2 -1q21 -9 15 -19q0 -1 -2 -2q-1 -2 -2 -3l-3 -9q-3 -8 -5 -11q-1 -2 -2 -7q-2 -4 -3 -7q5 1 15 2q9 1 14 1h5q16 1 24 6q3 2 6 2t8 -5l2 -2
q12 -11 7 -16q-1 -2 -4 -5q-4 -3 -4 -4q-1 -3 -2 -9q-2 -12 -4 -19q-3 -15 -9 -29q-9 -28 -24 -54l-1 -1q-12 -23 -25 -23q-3 2 -4 5q1 5 -2 8q-4 8 -10 13q-2 3 -8 10l-6 9q9 -6 16 -10l1 -1q12 -8 19 -8q2 0 5 3q7 6 10 15q14 26 21 54q10 30 10 49q0 3 -3 3q-9 0 -27 -2
q-9 -1 -13 -1q-3 0 -11 -1q-7 0 -11 -1q-28 -62 -64 -94q-15 -15 -44 -32h-3q53 45 89 119q2 2 3 5q-19 -3 -36 -10q-4 -3 -9 -3q-4 0 -11 7q-12 12 -12 24z" />
    <glyph glyph-name="uni30AC" unicode="&#x30ac;" 
d="M190 167q46 -15 34 -33q-7 -5 -21 16q-9 13 -13 17zM211 181q36 -2 40 -23q-7 -17 -22 5zM8 -5h-2q44 37 90 123q-30 -5 -35 -8q-1 -1 -3 -2q-4 -2 -7 -2q-19 6 -24 29q11 -10 22 -10q5 0 37 3q10 1 15 1q12 26 17 44q-1 9 -16 16q0 2 3 2q31 -5 34 -19q0 -3 -3 -7
q-5 -6 -7 -12q-4 -10 -9 -22q38 3 52 5q1 0 4 2q4 3 6 3q17 -8 21 -22q0 -5 -8 -10l-2 -1q-31 -130 -63 -132q-6 3 -6 12q-2 8 -25 30q35 -22 44 -12q30 55 38 118l-1 1h-2q-23 0 -63 -5q-47 -97 -107 -125z" />
    <glyph glyph-name="uni30AD" unicode="&#x30ad;" 
d="M179 167h5q10 -1 11 -7q0 -4 -8 -7h-1q-4 -2 -13 -4q-5 -1 -7 -2q-21 -6 -40 -12q1 -7 4 -13q2 -7 6 -20q3 -9 4 -14q6 2 16 5q11 3 16 4q1 0 4 1q6 2 15 6q1 1 4 2q5 5 11 5h7q7 0 13 -3q6 -7 3 -12q-3 -3 -10 -3h-5q-13 0 -35 -6q-15 -4 -30 -9q-1 0 -3 -1q-1 0 -2 -1
q1 -4 4 -12q10 -34 18 -52q2 -3 5 -10q3 -6 4 -9q3 -12 -3 -18q-5 -2 -12 2q-5 5 -7 15q-4 13 -11 40t-11 40q-23 -6 -44 -14q-1 0 -3 -1q-9 -3 -12 -6q-1 0 -2 -1q-5 -5 -10 -5q-3 0 -5 1q-10 3 -18 10q-1 2 -5 5q-7 4 -5 9l2 1q18 -14 60 0q7 3 10 4q14 5 29 9
q-8 23 -14 47h-1q-1 -1 -2 -1q-2 -1 -7 -2q-6 -3 -18 -6q-18 -6 -27 -6q-3 0 -6 2q-10 5 -18 12v3q11 -3 21 -4h4q10 0 28 6q4 1 12 4q7 2 11 3q-1 5 -3 13q-3 9 -4 13q-1 2 -2 6q-4 14 -10 19q-3 2 -10 6q-5 2 -7 3q1 0 2 1q3 2 4 2q15 0 30 -6q6 -3 7 -6q0 -3 -2 -7
q-1 -3 -1 -5q0 -7 3 -19q2 -4 2 -6q0 -1 1 -2q1 -4 1 -8q20 6 39 15q2 1 6 2q7 4 12 4z" />
    <glyph glyph-name="uni30AE" unicode="&#x30ae;" 
d="M15 68l2 1q1 -1 3 -2q12 -7 21 -7q18 2 75 21q-10 34 -14 48q-4 -1 -11 -3q-30 -9 -33 -10q-3 -2 -6 -2q-24 3 -31 18l2 1q14 -6 21 -6q12 0 54 13q-3 13 -6 22q-3 31 -29 37l6 3q32 -3 37 -14q0 -2 -1 -5q-3 -10 -1 -17q1 -2 3 -11q2 -7 3 -11q33 10 41 17q8 6 13 6
q18 -1 19 -5q0 -7 -8 -10q-6 -3 -61 -19q8 -29 15 -48q3 1 10 4q40 14 42 16q1 0 2 1q7 5 13 5q19 0 22 -9q1 -10 -17 -11q-4 4 -69 -16q2 -5 5 -15q15 -46 19 -54q17 -31 1 -35q-12 2 -16 23q-4 24 -22 76q-60 -21 -68 -28q-33 9 -36 26zM183 189q14 -1 26 -12
q11 -11 8 -19q-7 -9 -16 1q-2 3 -6 10q-6 14 -12 20zM202 202q30 -3 39 -17q3 -11 -3 -15q-7 -2 -14 8q-9 14 -22 24z" />
    <glyph glyph-name="uni30AF" unicode="&#x30af;" 
d="M157 151h-5q-7 1 -10 7q-1 -1 -1 -2q-1 -2 -4 -5q-8 -9 -16 -17q-32 -30 -63 -45q-6 -3 -12 -4q34 26 70 71l1 1q12 14 12 23q0 4 -5 9l-3 3q0 2 3 2q5 0 16 -7q1 -1 2 -1q8 -6 8 -13q0 -4 -2 -7l-1 -1l-1 -1q0 -1 -1 -2q1 -1 2 -1q4 -3 17 0h2q14 0 23 5q1 0 2 2
q5 4 7 2q2 -1 5 -4q7 -4 10 -8l2 -2q4 -6 4 -9q0 -5 -7 -10h-1q-4 -2 -8 -10q-1 -1 -1 -2q-2 -3 -4 -8q-5 -8 -7 -12q-24 -40 -56 -73q-31 -33 -82 -56q-1 -1 -4 -2q-7 -3 -11 -3q90 55 147 162q0 1 1 2q6 12 7 19q-4 0 -12 -1q-16 -2 -24 -2z" />
    <glyph glyph-name="uni30B0" unicode="&#x30b0;" 
d="M181 186q28 -3 37 -20q3 -11 -3 -15q-7 -3 -12 6q-9 15 -22 29zM208 199q35 -3 35 -26q-1 -7 -7 -6t-10 10q-8 14 -18 22zM118 163v-1q17 -6 39 0l6 3t6 2q18 -5 23 -23q0 -4 -9 -8q-1 -1 -2 -1q-2 -2 -10 -16q-69 -121 -155 -148h-3q115 75 152 180h-42q-5 3 -8 7
q-43 -61 -94 -73q57 41 80 93q0 5 -8 13q24 -2 32 -19q0 -4 -4 -7q-2 -1 -3 -2z" />
    <glyph glyph-name="uni30B1" unicode="&#x30b1;" 
d="M100 127h4q15 0 47 6h3q27 4 40 10q1 0 2 1q3 2 5 2q5 0 15 -3q-6 3 2 -1l12 -6q1 -1 0 -6v-2q-5 -2 -15 -1q-5 1 -7 1h-4q-18 0 -49 -6l4 -4q2 -3 3 -4q1 -2 4 -5q2 -3 3 -5v-2q2 -3 1 -4q-5 -5 -10 -18q-2 -3 -3 -5q-28 -55 -74 -83q-1 -1 -3 -2q-6 -3 -9 -3
q41 35 69 90q0 1 1 2q10 19 10 31q0 3 -3 9q-1 1 -1 2q-19 -4 -37 -4h-4q-11 0 -19 7q0 1 -1 1q-1 1 -2 1l-3 -3t-7 -6q-3 -3 -13 -11q-16 -12 -33 -19h-2q50 39 65 84v2q1 2 1 3q0 5 -8 13q4 2 10 -1q16 -10 20 -22q0 -4 -5 -7q-4 -1 -5 -3q-1 -1 -2 -4q-5 -10 -8 -14
q-3 -5 -7 -8q6 -3 13 -3z" />
    <glyph glyph-name="uni30B2" unicode="&#x30b2;" 
d="M195 175q27 -4 33 -16q3 -11 -3 -13q-7 -1 -13 9q-7 11 -17 20zM216 191q33 -1 35 -19q0 -8 -5 -7q-6 1 -12 10q-4 7 -18 16zM53 -13h-2q64 59 80 124q0 6 -4 10q-30 -4 -41 -4q-17 0 -25 9q-24 -27 -56 -39q35 30 54 62q16 29 5 41q5 3 9 -1q26 -20 15 -29
q-2 -1 -10 -12t-13 -18q6 -3 17 -4q61 6 87 16q6 4 14 4q31 -5 22 -18q-13 4 -69 -6q-4 -1 -6 -1q17 -11 17 -25q-3 -6 -6 -11q-31 -70 -88 -98z" />
    <glyph glyph-name="uni30B3" unicode="&#x30b3;" 
d="M155 26h-5q-7 0 -22 -2q-7 -1 -11 -1q-18 -2 -35 -8q-3 -2 -7 -2q-10 0 -20 12q-9 9 -8 16l2 1q8 -8 19 -11h1h4q16 1 46 4l42 3h7q3 12 8 36q3 13 4 19q6 22 6 34q0 6 -8 6h-8q-8 0 -24 -2q-11 -2 -16 -2q-4 0 -13 -2q-10 -1 -15 -2h-2q-6 -1 -14 -4q-1 0 -1 -1
q-4 -3 -8 -3q-8 1 -14 7l-1 1q-11 10 -10 18q3 -1 6 -4q2 -1 3 -2q4 -3 11 -3h4q9 0 29 4q5 1 8 1q17 1 33 4q4 1 13 1q12 1 17 3q1 0 3 2q3 2 5 2q4 0 11 -7t13 -14q3 -3 2 -6q-9 -3 -12 -20q-1 -5 -4 -16q-2 -7 -3 -10q-4 -21 -10 -40q9 -1 10 -7q0 -9 -10 -8q-2 0 -7 1
q-12 2 -19 2z" />
    <glyph glyph-name="uni30B4" unicode="&#x30b4;" 
d="M182 170q32 -6 34 -26q0 -6 -5 -6t-9 5q-3 3 -7 11q-8 11 -13 16zM200 189q35 -2 38 -19q0 -8 -6 -8q-4 0 -13 10q-11 13 -19 17zM22 143h1q6 -9 20 -9q74 6 110 13q1 0 3 2l4 2q19 -9 24 -25q0 -2 -6 -6l-2 -1q-4 -11 -20 -84q8 -1 10 -5q1 -6 -4 -8q-6 -1 -20 1h-5
q-34 0 -82 -12q-6 -1 -7 -1q-19 4 -29 25q0 3 2 4q9 -12 22 -12q2 0 50 4q39 4 50 5q14 60 15 92q0 5 -4 5q-32 -2 -97 -12l-1 -1q-6 -3 -10 -3q-21 4 -24 26z" />
    <glyph glyph-name="uni30B5" unicode="&#x30b5;" 
d="M164 125v2h-6q-22 0 -63 -6v-6q0 -7 1 -22t1 -23v-12q0 -8 -7 -8q-2 0 -5 5q-3 6 -4 13q-2 12 0 18v33h-4q-3 -1 -5 -1q-9 -1 -18 -4q-1 0 -4 -2q-7 -3 -11 -3q-9 0 -20 11l-2 2q-6 5 -6 9v4q2 0 5 -2t4 -2q6 -3 13 -3h5q6 0 19 2q7 1 10 1t7 1h7v26q0 14 -16 26q0 2 3 2
q8 0 16 -4q13 -7 13 -16q-2 -7 -2 -15v-18q3 1 9 1q6 1 9 1q11 1 34 2q11 1 17 1v22q-1 24 -17 35v2q7 6 21 -4q1 0 2 -1q15 -10 15 -17q0 -5 -3 -9q0 -1 -1 -2t-1 -2v-24h19q12 0 24 5q7 0 13 -4q10 -7 10 -11q-1 -8 -6 -9q-4 0 -13 2q-3 1 -4 1q-21 3 -43 5v-1
q-1 -71 -32 -116q-12 -15 -28 -27l-2 -2q-7 -5 -11 -5q56 52 57 149z" />
    <glyph glyph-name="uni30B6" unicode="&#x30b6;" 
d="M192 186q34 -6 38 -24q-1 -9 -9 -8q-7 2 -14 14q-3 4 -10 12q-4 4 -5 6zM219 199q34 -4 35 -22q-1 -7 -7 -7q-6 1 -11 9q-2 2 -6 7q-2 4 -11 13zM3 131v4q9 -9 23 -10q1 0 8 1q21 3 38 4v27q-1 16 -16 22v2q23 2 32 -16q0 -5 -2 -8v-25q29 3 68 5v27q0 14 -12 29
q-3 3 -3 4q8 5 23 -7q3 -2 4 -3l3 -3q11 -8 7 -15q0 -1 -2 -3q-3 -5 -3 -12v-16h30q2 0 6 2q4 1 6 1q14 -1 23 -11q6 -11 -7 -11q-5 0 -16 2q-22 2 -42 3q-7 -118 -72 -148q53 52 55 149h-6q-38 0 -62 -4v-21q0 -7 1 -27q1 -8 1 -9q0 -14 -8 -14q-9 3 -10 24q0 2 1 8t1 9v27
q-12 -2 -28 -6q-12 -3 -15 -3q-22 8 -26 22z" />
    <glyph glyph-name="uni30B7" unicode="&#x30b7;" 
d="M47 186v2q7 -1 20 -6q3 -1 5 -2q4 -1 11 -5q4 -1 6 -2l2 -1q9 -4 11 -8q1 -3 1 -6q0 -6 -3 -8q-7 -4 -21 6q-17 14 -32 30zM26 119q18 -9 37 -10h2q23 -4 22 -16q0 -8 -8 -8q-6 1 -13 4q-8 3 -17 8q-7 3 -18 14q-5 5 -5 8zM39 23l2 1q14 -18 25 -13q12 5 23 13
q26 15 50 32q51 34 92 79v-3q-5 -11 -17 -25q-23 -31 -53 -57q-21 -19 -64 -48q-1 0 -1 -1q-10 -5 -14 -11q-6 -9 -12 -5q-7 5 -15 11q-16 13 -16 27z" />
    <glyph glyph-name="uni30B8" unicode="&#x30b8;" 
d="M47 189h2q20 -10 46 -18q18 -12 2 -22q-15 2 -50 40zM26 119q8 -5 29 -8t26 -9q9 -15 -7 -17q-34 12 -48 34zM39 26h2q10 -14 21 -14q84 34 169 123v-3q-48 -83 -149 -138q-2 -1 -4 -5q-3 -5 -6 -5q-32 17 -33 42zM156 159q37 -1 40 -23q-4 -13 -17 1q-11 12 -23 22z
M183 175q37 0 37 -19q-3 -12 -17 2q-2 2 -7 6q-3 3 -13 11z" />
    <glyph glyph-name="uni30B9" unicode="&#x30b9;" 
d="M167 159l-2 1l-36 -6q-23 -4 -32 -12q-1 -1 -1 -2q-1 -1 -4 -2q-10 0 -19 9q-11 10 -10 20q2 -1 6 -4q2 -2 4 -3q5 -3 11 -3q9 0 27 4q5 1 7 1q21 3 42 8q5 2 10 5q1 0 2 1q3 2 5 2q3 0 8 -5q2 -1 3 -2l2 -1q7 -7 7 -13q-1 -8 -12 -14q-5 0 -13 -15q-2 -2 -4 -7
q-4 -6 -13 -18q-9 -13 -20 -25q5 -1 14 -6q5 -2 7 -3q4 -2 13 -6q8 -5 12 -7q28 -16 41 -29q5 -5 8 -11q2 -13 -2 -16q-5 -1 -10 0q-7 3 -12 9q-3 4 -10 11q-18 20 -29 30q-16 14 -35 25q-4 -6 -9 -10q-30 -32 -70 -50q-2 -1 -5 -2q-15 -7 -22 -8q38 20 75 59q35 36 57 74
q8 12 9 21z" />
    <glyph glyph-name="uni30BA" unicode="&#x30ba;" 
d="M208 199q40 -6 37 -26q-2 -7 -6 -5q-5 1 -10 10q-10 14 -21 21zM187 186q32 -13 32 -30q0 -7 -6 -7q-7 0 -10 7q-7 20 -16 30zM13 0h-2q95 59 141 154q-2 0 -7 -1q-52 -8 -61 -12q-4 -2 -8 -7q-2 -2 -3 -2q-24 7 -28 29l2 1q10 -10 20 -10q27 2 76 13q8 2 15 8
q16 -3 23 -19q-1 -10 -10 -13q-6 -1 -11 -10q-2 -4 -3 -5q-16 -28 -38 -53q74 -27 95 -62q4 -14 -7 -17q-10 0 -20 15q-31 39 -70 62q-48 -53 -104 -71z" />
    <glyph glyph-name="uni30BB" unicode="&#x30bb;" 
d="M40 90h5q12 0 32 8q14 5 29 9v45q0 12 -6 21q-6 6 -13 11q1 0 3 1q3 2 5 1t5 -2q7 -2 10 -4l1 -1q11 -6 15 -11q2 -4 0 -13q-1 -3 -3 -7q-3 -4 -3 -6q-1 -8 -1 -16v-15q30 9 63 17h3q5 1 14 4q1 0 2 1q4 3 6 2q9 -4 16 -10l2 -2q9 -8 9 -13q0 -7 -8 -7h-4h-1
q-8 -2 -21 -11q-3 -2 -5 -3q-15 -9 -28 -18h-3q14 14 28 29q11 13 12 22h-4q-8 0 -23 -4q-3 -1 -4 -1q-4 -1 -13 -4q-11 -2 -16 -4q-4 -1 -11 -3q-9 -3 -14 -5v-55q-1 -21 10 -29q11 -10 34 -10h6q14 0 29 3q2 0 6 1q8 2 12 2h4q13 0 14 -6q0 -8 -18 -11h-2q-2 0 -7 -1h-8
h-33q-32 1 -48 18q-12 14 -11 46q-1 18 -1 38q-3 -1 -4 -1t-4 -1q-29 -9 -40 -19q-5 -5 -9 -5q-7 0 -17 10q-10 7 -9 14q1 0 4 -2q4 -1 6 -2q4 -1 7 -1z" />
    <glyph glyph-name="uni30BC" unicode="&#x30bc;" 
d="M191 165q42 -9 43 -29q-5 -12 -17 0q-10 14 -26 29zM213 183q38 -5 42 -23q0 -7 -4 -9q-5 -1 -9 4q-2 2 -5 6q-14 16 -24 22zM2 94l2 1q7 -7 14 -7q5 0 40 10q18 5 28 8q-1 64 -1 51q0 15 -16 24q22 5 37 -19q0 -5 -4 -12q-3 -5 -3 -9q-1 -7 -1 -15v-16q6 2 19 5
q38 10 60 15q1 0 3 1q3 2 5 2q4 0 11 -6q3 -2 5 -3l1 -1q11 -8 11 -14t-10 -7q-6 0 -8 -2q-2 -1 -13 -8q-31 -20 -39 -23h-2q33 28 42 52q-3 1 -5 1q-52 -12 -80 -22v-48q-2 -47 46 -45q17 0 43 4q10 2 12 2q16 -1 13 -12q-5 -6 -35 -6h-38q-51 1 -52 62v19q0 17 -1 21
q-35 -12 -51 -23q-4 -3 -6 -3q-19 4 -27 23z" />
    <glyph glyph-name="uni30BD" unicode="&#x30bd;" 
d="M41 167q14 -5 25 -14q26 -22 26 -41q1 -9 -8 -9q-7 1 -10 5q-1 2 -2 7l-3 6q-9 26 -28 46zM180 181q7 0 18 -11q7 -6 13 -14q4 -4 4 -9q0 -3 -6 -5q-1 -1 -3 -2q-4 -2 -6 -4q-3 -3 -7 -11l-3 -6q-47 -89 -101 -119q-1 0 -2 -1q-13 -8 -22 -9q37 22 67 66q30 40 50 86l1 1
q7 14 3 22q-2 5 -11 14q1 0 1 1q2 1 4 1z" />
    <glyph glyph-name="uni30BE" unicode="&#x30be;" 
d="M12 167q49 -22 53 -56q-1 -11 -11 -10q-9 3 -11 15q-11 28 -31 51zM151 181q8 7 26 -14l2 -2q10 -8 9 -16q0 -5 -9 -10l-1 -1q-5 -3 -9 -12l-3 -6q-56 -112 -127 -133q80 60 122 168q4 14 -10 26zM185 189q32 -5 35 -27q0 -7 -6 -8q-5 -1 -9 6q-1 2 -3 5q-9 16 -17 24z
M204 202q37 -2 40 -26q0 -6 -6 -6t-9 7q-9 16 -25 25z" />
    <glyph glyph-name="uni30BF" unicode="&#x30bf;" 
d="M42 -29h-3q46 29 79 69q13 15 25 31q-2 1 -5 5q-1 2 -2 3q-17 20 -40 35q-15 -14 -33 -23q-9 -7 -14 -6q22 17 40 38q31 34 40 57q1 2 -1 5l-1 1q-1 3 -5 8l-3 3q2 2 3 2q4 0 11 -4q3 -1 5 -2q1 -1 3 -2q10 -5 10 -10t-5 -10q0 -1 -1 -2q5 -2 10 -2q6 0 10 1q16 1 23 7
q1 0 2 1q4 3 5 2q6 -3 11 -7q11 -9 11 -16q0 -5 -8 -11q-1 -1 -2 -1q-3 -3 -7 -10q-1 -3 -2 -4q-48 -88 -110 -133q-21 -15 -46 -25zM193 162h-12q-6 0 -19 -2q-7 -1 -10 -1q-4 0 -10 6q-2 -2 -5 -7q-4 -4 -6 -7q-14 -19 -32 -35q9 -2 18 -5q15 -6 27 -16l3 -3q5 -4 6 -6
q18 27 32 55q8 12 8 21z" />
    <glyph glyph-name="uni30C0" unicode="&#x30c0;" 
d="M180 186q34 -7 37 -28q-1 -8 -7 -8q-6 1 -10 10q-1 2 -4 6q-9 14 -16 20zM204 199q38 -1 40 -26q-1 -6 -7 -6q-5 1 -9 9q-8 11 -24 23zM14 -29h-2q49 33 98 99q-18 25 -44 43q-25 -22 -49 -28q66 49 80 95q0 5 -6 14q-1 2 -2 3q7 6 30 -13q5 -6 -2 -12q-1 0 -2 -2
q-2 -1 -3 -2q19 -2 42 4q5 1 10 6h2q19 -10 22 -26q0 -4 -4 -5q-7 -1 -11 -10q-1 -2 -2 -3q-67 -126 -157 -163zM119 90q2 -1 3 -4q33 48 39 76q-2 0 -6 -1q-26 -2 -32 -2q-8 0 -14 5l-3 -6l-2 -2q-15 -22 -35 -41q30 -9 50 -25z" />
    <glyph glyph-name="uni30C1" unicode="&#x30c1;" 
d="M147 130v-7v-6q15 2 31 2h7q10 0 19 3h5q18 0 25 -9q3 -7 -2 -11q-5 -2 -14 0q-21 4 -42 4h-11q-10 0 -19 -1q-1 -10 -3 -21q-3 -16 -7 -31q-10 -32 -29 -55q-11 -13 -35 -27h-2q47 37 58 123q0 5 1 9q-9 -2 -18 -2q-33 -3 -50 -14q-1 -1 -3 -2q-5 -3 -8 -3q-7 0 -12 5
q-17 10 -16 22q2 0 4 -3q3 -2 4 -2q9 -6 29 -1l15 3q12 3 19 4q19 3 37 5q1 8 1 16q0 5 -1 9q-3 10 -13 16q-31 -12 -74 -15q65 20 104 50q2 1 3 4q0 3 -5 7l-3 3q0 2 3 2q4 0 11 -3q3 -1 4 -2q3 -1 7 -4q5 -2 7 -4q5 -5 5 -8q0 -8 -7 -8q-2 0 -5 -1q-4 0 -6 -1
q-9 -4 -17 -9q-10 -6 -22 -9q6 -1 10 -4q1 -1 3 -2q11 -7 14 -11q2 -5 -2 -11z" />
    <glyph glyph-name="uni30C2" unicode="&#x30c2;" 
d="M189 170q32 -8 35 -24q-1 -8 -8 -8q-7 1 -11 10q-6 11 -16 22zM210 186q34 -4 38 -24q0 -8 -7 -8q-6 1 -12 10q-8 11 -19 22zM61 -32h-3q49 40 60 133q-38 -3 -72 -16q-8 -3 -10 -3q-23 8 -26 26l2 1q8 -10 22 -10q4 0 26 4q37 7 59 10v10q1 7 1 11q0 8 -12 20
q-37 -15 -76 -16q96 34 106 54q0 4 -5 8q-2 1 -3 2l1 1q1 2 3 2q13 -4 27 -15q10 -8 6 -13q-3 -3 -8 -3h-2q-3 0 -17 -7q-17 -7 -28 -12q25 -11 26 -22q0 -2 -1 -5q-2 -3 -2 -5v-9q4 0 10 1h10q17 0 33 2q3 0 6 2q19 -2 27 -9q7 -10 -6 -12q-3 0 -13 1q-26 4 -50 4h-9
q-6 -1 -9 -1q-12 -102 -73 -134z" />
    <glyph glyph-name="uni30C3" unicode="&#x30c3;" 
d="M52 130q26 -8 27 -33q0 -9 -6 -10q-6 1 -7 11q-6 21 -14 32zM103 143q20 -8 28 -25q4 -12 -3 -17q-7 -3 -12 9q-5 19 -13 33zM179 143q19 -6 25 -23q1 -5 -5 -6l-3 -1q-4 0 -5 -1q-43 -88 -96 -110q65 54 87 130q0 3 -4 6l-3 3q1 2 4 2z" />
    <glyph glyph-name="uni30C4" unicode="&#x30c4;" 
d="M31 133q32 -19 35 -44q0 -14 -9 -15q-9 1 -10 15q-3 19 -16 44zM95 151h2q35 -21 35 -46q0 -8 -7 -10q-8 -1 -11 7q-8 31 -19 49zM84 -32h-2q86 79 114 158q4 13 -10 23v2q41 -13 39 -31q-1 -1 -6 -3q-1 -1 -2 -1t-2 -1q-2 0 -3 -2q-47 -104 -128 -145z" />
    <glyph glyph-name="uni30C5" unicode="&#x30c5;" 
d="M8 151h2q32 -20 32 -44v-5q0 -7 -3 -8q-4 -3 -8 0q-3 2 -5 11q-1 3 -2 4q-6 21 -16 42zM74 167q8 -2 16 -9q6 -6 11 -12q12 -19 7 -32q-2 -5 -9 -2q-4 2 -7 10q-1 1 -1 2q-2 9 -5 18q-2 5 -7 14q-3 7 -5 11zM60 -13h-2q47 34 78 79q6 8 15 26q1 3 2 4q11 18 17 39
q5 15 2 21t-10 9q8 6 23 -5t15 -20q-1 -3 -6 -5q-4 -1 -5 -3q-3 -5 -6 -14q-2 -5 -3 -7q-26 -65 -78 -101q-15 -11 -42 -23zM186 181q36 -7 38 -30q-5 -13 -21 11q-7 10 -17 19zM210 194q33 -4 38 -24q0 -7 -6 -8t-10 6q-10 17 -22 26z" />
    <glyph glyph-name="uni30C6" unicode="&#x30c6;" 
d="M92 181h4q10 0 30 4q4 1 6 1q17 2 32 6q3 0 6 2q2 0 6 -1h5q14 -3 15 -8q0 -7 -12 -7h-2h-8q-22 0 -61 -8q-1 0 -2 -1q-14 -4 -21 -1q-9 3 -17 11l-1 1q-7 6 -7 11q2 0 6 -3q2 -2 3 -2q9 -5 18 -5zM151 93l-6 -7q-1 -7 -4 -13q-8 -27 -23 -52q-15 -26 -37 -41
q-1 -1 -4 -2q-5 -4 -9 -4q21 15 40 59q18 38 23 63q2 8 0 12q-3 6 -7 9h-3q-3 0 -9 -1q-37 -5 -55 -13l-1 -1q-2 -1 -5 -1q-5 0 -13 8q-14 11 -13 21q3 -1 7 -5q3 -3 5 -4q4 -3 12 -3q16 1 31 4q19 3 58 6l30 3q3 0 9 1q14 0 21 3q1 0 3 1q3 2 5 2q5 0 14 -4q2 -1 3 -1t2 -1
q6 -4 6 -6q1 -9 -8 -9q-6 0 -12 2q-3 0 -10 1q-13 2 -21 2h-4q-23 0 -46 -4q5 -3 9 -7q6 -6 11 -12q2 -4 1 -6z" />
    <glyph glyph-name="uni30C7" unicode="&#x30c7;" 
d="M45 191q11 -9 26 -10q56 3 81 13q16 -1 21 -9q1 -8 -14 -7q-19 0 -63 -8q-19 -3 -22 -3q-21 4 -29 24zM197 170q30 -9 30 -27q0 -10 -6 -8q-5 2 -10 14q-5 11 -14 21zM216 186q26 -2 34 -19q3 -10 -2 -13q-6 -2 -11 7t-21 25zM128 94q-1 -3 -2 -8q-1 -3 -1 -4
q-25 -82 -80 -108q50 44 64 123q1 7 -6 19q-1 1 -1 2q-48 -4 -68 -20q-26 10 -29 29q13 -11 25 -10q1 0 14 2q93 11 128 12q7 3 15 4q13 -1 19 -10q5 -10 -6 -11q-2 0 -10 1q-26 4 -52 4q-6 0 -16 -1h-14q21 -14 20 -24z" />
    <glyph glyph-name="uni30C8" unicode="&#x30c8;" 
d="M102 106v-29q1 -33 4 -64q0 -2 1 -7v-7v-4v-5q-1 -4 -1 -6v-1q-3 -14 -8 -15q-4 1 -6 6q-4 7 -6 21q-1 3 1 8q1 2 1 3q3 18 3 38v133q0 7 -3 13q-2 4 -10 9l-3 3l1 1q4 2 7 2q14 -1 26 -14q0 -1 1 -2q5 -8 2 -12l-3 -3t-3 -4q-3 -7 -3 -20q-1 -15 -1 -30v-9q17 -1 32 -6
q23 -8 34 -16q14 -9 14 -19q0 -9 -9 -9q-7 0 -13 8q-2 2 -6 7l-6 6q-10 9 -18 13q-13 7 -28 11z" />
    <glyph glyph-name="uni30C9" unicode="&#x30c9;" 
d="M136 157q36 -4 40 -23q-1 -8 -7 -8q-6 1 -13 11q-10 13 -20 20zM160 175q32 0 40 -20q-4 -13 -17 -1q-7 9 -23 21zM87 110v-70q0 -8 2 -22t2 -20q-1 -24 -10 -30q-10 8 -12 44q4 7 5 34q1 21 1 43v84q0 20 -19 29q22 8 40 -19q0 -2 -2 -5q-7 -10 -7 -27v-38
q70 -14 76 -45q-1 -20 -34 13q-18 17 -42 29z" />
    <glyph glyph-name="uni30CA" unicode="&#x30ca;" 
d="M128 141v24q0 26 -13 29q-5 1 -6 5q20 7 41 -18q0 -7 -6 -13v-13q0 -16 -1 -29h3q20 2 39 2q11 0 20 5q18 0 29 -8q13 -12 0 -14q-1 0 -7 1q-31 3 -53 4q-3 0 -17 -1q-9 -1 -14 -1q-8 -118 -74 -148q48 40 58 147q-67 -6 -75 -13q-5 -5 -10 -5q-29 13 -26 30
q10 -9 19 -10q2 0 22 2q44 6 71 8v16z" />
    <glyph glyph-name="uni30CB" unicode="&#x30cb;" 
d="M55 143h1q18 -9 35 -9q23 0 75 8l7 1q27 -5 17 -17q-11 2 -45 -2q-36 -5 -57 -5q-23 2 -33 24zM15 55q13 -9 29 -10q4 0 30 3q64 7 90 7q3 0 25 -1h17t5 1q6 1 8 0q27 -10 22 -21q-3 -4 -9 -4q-1 0 -7 2q-36 10 -76 10q-56 0 -99 -14q-4 -2 -5 -2q-34 16 -30 29z" />
    <glyph glyph-name="uni30CC" unicode="&#x30cc;" 
d="M42 -16h-3q49 30 99 93q-26 26 -53 42h2q28 -10 60 -30q30 42 41 76v2q-45 -4 -69 -13q-1 -1 -3 -2q-3 -3 -5 -3q-27 10 -26 26q6 -9 22 -9q45 6 76 13q5 2 10 7q17 -5 25 -23q0 -6 -13 -11h-1q-21 -42 -43 -73q37 -28 38 -50q-7 -18 -23 2q-3 3 -8 10q-5 9 -18 24
q-45 -55 -108 -81z" />
    <glyph glyph-name="uni30CD" unicode="&#x30cd;" 
d="M110 213h1q3 -8 25 -16q24 -9 24 -19q-7 -13 -31 9q-2 2 -6 5q-12 8 -13 21zM32 34h-2q52 31 91 66l-1 1v2q2 0 4 -1q22 20 33 39v1q-6 -1 -23 -4q-38 -7 -47 -10q-4 -3 -9 -3q-20 6 -22 21l1 -1q3 -8 19 -7q74 11 88 17l1 1q2 3 6 3q3 0 7 -5q2 -3 3 -3q1 -1 4 -3
q5 -3 5 -7q1 -7 -14 -7q-3 -2 -7 -6l-2 -2q-11 -13 -31 -30q1 -1 2 -1q9 -8 4 -16v-58q0 -6 2 -21v-6q-2 -28 -12 -22q-4 5 -9 25q-1 3 1 5q1 0 1 1q5 15 6 37v39q0 6 -2 11q-49 -39 -97 -56zM158 93h2q36 -14 58 -36q13 -17 6 -27q-8 -4 -21 15q-1 2 -4 5q-25 31 -41 43z
" />
    <glyph glyph-name="uni30CE" unicode="&#x30ce;" 
d="M172 187q18 5 40 -28q0 -5 -7 -10q-6 -5 -9 -9q-67 -129 -152 -158q97 73 142 180q2 15 -14 25z" />
    <glyph glyph-name="uni30CF" unicode="&#x30cf;" 
d="M9 31h-3q24 17 44 40q22 26 31 44q2 3 2 7v2q-1 2 -1 3q-1 2 -3 4q-4 3 -4 6q1 0 3 1q3 1 4 0q3 -2 9 -5q5 -4 8 -6l1 -1q7 -6 7 -11q0 -4 -4 -5l-2 -2q-5 -2 -6 -4q-3 -4 -8 -11q-3 -4 -15 -18q-8 -9 -17 -16q-21 -18 -46 -28zM158 131v2q55 -22 84 -62q9 -13 9 -23
q1 -9 -8 -9q-3 0 -6 1q-6 2 -13 16q-24 41 -66 75z" />
    <glyph glyph-name="uni30D0" unicode="&#x30d0;" 
d="M69 130l2 3q9 -1 21 -15q9 -11 4 -15q-4 -2 -10 -10q-2 -3 -3 -4q-31 -37 -78 -60h-3q63 54 74 87q0 3 -4 8zM149 125h2q80 -40 86 -79q-1 -15 -12 -11q-10 6 -19 26q-26 40 -57 64zM194 151q36 -4 37 -23q0 -6 -6 -6q-5 0 -10 6q-2 2 -5 6q-10 12 -16 17zM213 170
q41 -2 42 -24q-3 -11 -16 0q-11 14 -26 24z" />
    <glyph glyph-name="uni30D1" unicode="&#x30d1;" 
d="M5 26h-2v2q42 32 60 58q14 18 14 29q0 3 -4 8q-3 2 -4 4q3 3 4 3q7 0 18 -11q10 -8 10 -15q1 -2 -2 -3q-4 -3 -8 -7q-1 -2 -4 -6q-10 -14 -18 -20q-9 -9 -19 -16q-20 -16 -45 -26zM144 125h2q27 -12 50 -30q36 -26 36 -50q0 -11 -8 -11q-6 1 -9 7q-2 3 -5 9q-6 12 -10 18
q-6 10 -14 19q-18 21 -42 38zM229 170q22 -2 24 -26q-1 -23 -24 -24q-24 2 -26 24q1 25 26 26zM229 125q19 1 19 19q-1 20 -19 21q-20 -1 -21 -21q1 -18 21 -19z" />
    <glyph glyph-name="uni30D2" unicode="&#x30d2;" 
d="M91 107h4q34 0 68 17q1 0 2 1q3 2 5 2q8 0 15 -4q6 -4 6 -8q0 -6 -5 -8q-5 -1 -14 -2q-5 -1 -7 -1q-13 -3 -27 -4q-3 0 -8 -1q-19 -4 -29 -4h-5q-8 0 -22 6v-16v-43q0 -25 12 -33q12 -9 42 -9h14q22 0 43 6q8 4 17 4q16 0 16 -8q0 -2 -1 -5q-2 -2 -8 -5q-6 -2 -19 -3
q-4 -1 -6 -1q-3 0 -9 -1h-9h-30q-38 0 -55 11q-20 11 -20 49v106v5q-1 4 -1 6q-1 3 -5 8q-1 2 -2 3q-6 6 -14 11q2 3 5 3q6 0 17 -5q3 -1 4 -2q1 0 3 -1q18 -10 13 -19q0 -1 -3 -3l-1 -2q-1 -25 -3 -49q9 -1 17 -1z" />
    <glyph glyph-name="uni30D3" unicode="&#x30d3;" 
d="M166 162q40 -7 43 -26q0 -9 -8 -9q-7 1 -13 10q-11 15 -22 25zM187 178q40 -3 43 -23q-6 -14 -20 2q-10 12 -23 21zM60 61v-16q-2 -49 48 -47q24 0 61 6q15 3 18 3q22 -2 13 -15q-13 -7 -54 -8h-29q-69 -1 -68 58v111q1 18 -22 30q20 6 43 -19q0 -4 -3 -8q-5 -8 -5 -20
v-12q0 -8 -1 -17q9 -2 18 -2q26 0 66 15q11 4 13 4q13 0 18 -6q6 -8 -2 -13q-50 -10 -86 -10q-15 0 -27 6v-20q-1 -13 -1 -20z" />
    <glyph glyph-name="uni30D4" unicode="&#x30d4;" 
d="M205 197q24 -3 26 -27q-1 -26 -26 -27q-26 2 -28 27q2 25 28 27zM205 191q-21 -1 -22 -21q2 -19 22 -21q19 1 20 21q-2 18 -20 21zM77 107h4q34 0 68 17q1 0 3 2q2 1 4 1q9 0 15 -4t6 -8q1 -6 -5 -8q-5 -1 -14 -2q-5 -1 -7 -1q-13 -3 -27 -4q-3 0 -9 -2q-18 -3 -28 -3h-5
q-8 0 -22 6v-16v-43q0 -25 12 -33q13 -9 42 -9h14q22 0 43 6q1 0 2 1q7 3 15 3q16 0 16 -8q3 -15 -52 -15h-30q-37 -1 -55 11q-20 12 -20 49v106q0 5 -1 11q-1 3 -5 8q-1 2 -2 3q-6 6 -14 11q2 3 5 3q7 0 21 -7q1 0 3 -1q18 -10 13 -19q0 -4 -4 -12v-5q-2 -24 -2 -37
q8 -1 16 -1z" />
    <glyph glyph-name="uni30D5" unicode="&#x30d5;" 
d="M60 160h5q9 0 26 2q9 1 13 1q30 1 58 4q4 0 10 1q14 1 21 2q2 0 5 2q4 3 6 3h1q2 -2 6 -5q3 -2 11 -9q5 -5 5 -9q0 -5 -3 -7q-1 -1 -3 -2q-3 -2 -4 -3t-3 -5q-1 -2 -2 -3q-1 -3 -4 -9q-12 -29 -22 -43q-13 -21 -31 -40q-25 -28 -61 -50q-1 -1 -3 -2q-7 -4 -11 -4
q21 17 39 37q43 46 64 90q14 26 14 45q0 3 -3 3h-5q-10 0 -30 -3q-15 -2 -22 -2q-6 0 -19 -2q-13 -1 -20 -2h-2q-20 -2 -29 -6q-1 0 -2 -1q-3 -2 -4 -2q-11 0 -24 15q-9 9 -8 17q3 0 8 -5q2 -1 3 -2q9 -6 20 -6z" />
    <glyph glyph-name="uni30D6" unicode="&#x30d6;" 
d="M5 173h2q9 -14 28 -14q106 8 134 11q1 0 3 2q2 1 4 1q12 -4 24 -21q0 -6 -10 -10q-3 -1 -3 -2q-52 -113 -128 -153h-3q90 84 115 167q0 2 -1 4q-93 -5 -130 -15l-1 -1q-3 -4 -7 -4q-28 19 -27 35zM192 194q34 -5 35 -22q-1 -7 -6 -8q-5 0 -9 7q-8 12 -20 23zM219 205
q31 -7 32 -23q0 -7 -6 -7q-5 1 -9 9q-6 12 -17 21z" />
    <glyph glyph-name="uni30D7" unicode="&#x30d7;" 
d="M228 210q25 -2 27 -27q-1 -25 -27 -26q-24 2 -26 26q2 25 26 27zM249 183q-1 20 -21 21q-19 -1 -20 -21q1 -19 20 -20q20 1 21 20zM2 167h2q10 -15 31 -16h4q12 0 37 4q12 1 18 2t18 2q22 2 34 4q2 0 5 1q11 1 16 3q1 0 2 1q2 2 4 2h2q14 -10 24 -24v-1q0 -4 -5 -5
q-4 -1 -5 -2q-3 -5 -8 -14q-1 -4 -2 -5q-42 -84 -90 -119q-18 -11 -36 -21h-3q60 43 100 122q15 30 20 52l-1 1h-2h-4q-6 0 -18 -2q-6 -1 -9 -1q-19 -3 -5 -1q-14 -2 -32 -4q-37 -4 -54 -8h-2q-5 -2 -7 -4l-2 -2q-3 -2 -5 -2q-3 0 -6 3q-7 6 -12 13q-10 12 -9 21z" />
    <glyph glyph-name="uni30D8" unicode="&#x30d8;" 
d="M6 89q3 1 8 -1q3 -2 4 -2q9 -2 14 0q6 2 15 11q5 4 16 12q10 7 15 11q1 1 4 3q9 7 15 7q11 0 24 -11l15 -12q10 -9 15 -13q17 -12 33 -23q15 -9 30 -16l12 -6q10 -5 15 -8q14 -11 9 -22q-3 -6 -7 -4q-25 12 -68 44q-28 20 -42 34q-3 3 -9 8q-5 6 -9 9q-12 12 -17 12
t-17 -10q-26 -22 -37 -35q0 -1 -1 -2q-4 -6 -10 -6q-11 0 -20 8l-1 1q-7 6 -6 11z" />
    <glyph glyph-name="uni30D9" unicode="&#x30d9;" 
d="M209 35q-32 22 -73 59q-31 28 -39 28q-11 0 -48 -40l-5 -5q0 -1 -1 -2q-2 -6 -8 -6q-27 3 -28 18q2 0 6 -1q5 -2 7 -2q12 0 38 23t37 23q12 0 40 -23q43 -35 82 -54l10 -5q25 -10 23 -22q1 -20 -41 9zM172 149q41 -5 43 -26q-4 -13 -17 2q-2 2 -6 7q-11 13 -20 17z
M202 165q34 -3 37 -22q0 -8 -5 -8q-4 1 -9 9q-9 12 -23 21z" />
    <glyph glyph-name="uni30DA" unicode="&#x30da;" 
d="M7 90q2 0 6 -2q2 -2 3 -2q11 -5 30 13q7 5 20 16q6 5 9 7q1 1 3 2q12 9 19 9q6 0 15 -6q2 -1 3 -2q10 -7 19 -15q23 -18 45 -35q29 -21 53 -30q3 -2 4 -2q11 -6 14 -19q2 -19 -26 -2q-9 5 -27 19q-1 1 -2 1q-39 31 -60 51q-8 8 -17 16l-3 3q-11 10 -19 10q-5 0 -13 -8
q-15 -11 -33 -31q-9 -14 -17 -14q-1 0 -5 1q2 -1 -2 1q-20 7 -19 19zM209 162q23 -2 25 -26q-1 -24 -25 -25q-24 2 -26 25q2 24 26 26zM209 117q18 1 19 19q-1 20 -19 21q-20 -1 -21 -21q1 -18 21 -19z" />
    <glyph glyph-name="uni30DB" unicode="&#x30db;" 
d="M53 82h2q4 -13 4 -26q-3 -27 -11 -47q-3 -7 -9 -7q-10 -1 -10 16q0 8 9 22q16 22 15 42zM168 87h1q34 -23 50 -47q8 -12 8 -21v-4q0 -8 -8 -8q-7 0 -11 11q-15 36 -40 69zM131 91v-52q0 -5 1 -16t1 -17v-5q0 -6 -1 -12v-2q-2 -11 -8 -11q-3 0 -6 4q-1 1 -1 2
q-6 13 -26 29q-2 1 -3 2q4 -1 12 -4q11 -4 16 -4q4 0 4 6v104q-11 -2 -23 -2q-15 -1 -32 -3q-3 -1 -8 -1q-1 0 -4 1q2 -1 -1 1q-7 4 -14 10q-1 2 -4 4q-6 4 -5 8q4 -1 10 -4q3 -2 5 -3q9 -3 18 -3h4q27 1 52 4h2v34q0 21 -13 30l2 3q7 -1 19 -7q1 -1 2 -1t2 -1q5 -3 6 -5
q2 -4 0 -11q0 -2 -2 -7q-1 -5 -2 -8q0 -4 -1 -11q0 -7 -1 -11v-4q6 1 16 2q11 1 16 1q12 0 24 2q2 0 4 1q3 1 4 1q7 0 13 -3q1 -1 3 -1q4 -3 4 -5q0 -6 -3 -8q-1 -1 -6 -1q-7 0 -16 1h-6q-5 1 -8 1h-9q-4 0 -13 -1t-14 -1q-4 -1 -9 -1v-12q-1 -9 -1 -13z" />
    <glyph glyph-name="uni30DC" unicode="&#x30dc;" 
d="M42 82h2q2 -7 3 -20q-2 -28 -14 -58q-13 -7 -18 13q0 13 10 25q14 16 17 40zM154 87h1q50 -34 57 -65q2 -11 -4 -14q-7 -3 -12 6q-20 47 -42 73zM183 167q32 -4 35 -23q0 -10 -5 -9q-6 1 -12 13q-7 10 -18 19zM204 183q29 -2 37 -15q3 -7 -2 -11q-6 -2 -12 5
q-10 12 -23 21zM117 117v-30q0 -15 4 -68q1 -14 1 -15q0 -26 -9 -25q-5 1 -9 7q-1 9 -22 22q-4 3 -6 5q34 -13 31 -4q1 8 1 17v90q-22 -2 -54 -7q-9 -1 -10 -1q-26 7 -29 25q12 -9 25 -9q7 0 68 4q0 68 -16 63q17 9 32 -18q0 -1 -1 -5q-5 -18 -6 -39q10 1 29 3q21 1 28 2
q1 0 2 1q2 1 5 1q28 -3 18 -18q-2 -2 -17 0q-15 1 -25 1q-20 0 -40 -2z" />
    </font>
</defs>
</svg>
